<?xml version="1.0" standalone="no"?>
<!DOCTYPE svg PUBLIC "-//W3C//DTD SVG 1.1//EN" "http://www.w3.org/Graphics/SVG/1.1/DTD/svg11.dtd" >
<svg xmlns="http://www.w3.org/2000/svg" xmlns:xlink="http://www.w3.org/1999/xlink" version="1.1">
<metadata>
Created by FontForge 20170731 at Thu Mar 23 23:16:21 2023
 By Aleksey,,,
Copyright (c) Font Awesome
</metadata>
<defs>
<font id="FontAwesome6Free-Solid" horiz-adv-x="512" >
  <font-face 
    font-family="Font Awesome 6 Free Solid"
    font-weight="900"
    font-stretch="normal"
    units-per-em="512"
    panose-1="2 0 9 3 0 0 0 0 0 0"
    ascent="448"
    descent="-64"
    x-height="414"
    bbox="-8 -65.8846 640.143 448.5"
    underline-thickness="25"
    underline-position="-73"
    unicode-range="U+0030-1FAC1"
  />
<missing-glyph horiz-adv-x="384" 
d="M64 58l90 134l-90 134v-268v0zM103 0h179l-90 134l-89 -134v0zM231 192l89 -134v268l-89 -134v0zM282 384h-179l89 -134l90 134v0zM0 400q1 20 14 34v0q14 13 34 14h288q20 -1 34 -14q13 -14 14 -34v-416q-1 -20 -14 -34q-14 -13 -34 -14h-288q-20 1 -34 14
q-13 14 -14 34v416v0z" />
    <glyph glyph-name=".notdef" horiz-adv-x="384" 
d="M64 58l90 134l-90 134v-268v0zM103 0h179l-90 134l-89 -134v0zM231 192l89 -134v268l-89 -134v0zM282 384h-179l89 -134l90 134v0zM0 400q1 20 14 34v0q14 13 34 14h288q20 -1 34 -14q13 -14 14 -34v-416q-1 -20 -14 -34q-14 -13 -34 -14h-288q-20 1 -34 14
q-13 14 -14 34v416v0z" />
    <glyph glyph-name=".null" horiz-adv-x="0" 
 />
    <glyph glyph-name="nonmarkingreturn" horiz-adv-x="170" 
 />
    <glyph glyph-name="exclamation" unicode="&#xf12a;" horiz-adv-x="64" 
d="M64 384q0 14 -9 23v0q-9 9 -23 9t-23 -9t-9 -23v-256q0 -14 9 -23t23 -9t23 9t9 23v256v0zM32 -32q23 1 35 20q10 20 0 40q-12 19 -35 20q-23 -1 -35 -20q-10 -20 0 -40q12 -19 35 -20v0z" />
    <glyph glyph-name="exclamation" unicode="&#x2757;" horiz-adv-x="64" 
d="M64 384q0 14 -9 23v0q-9 9 -23 9t-23 -9t-9 -23v-256q0 -14 9 -23t23 -9t23 9t9 23v256v0zM32 -32q23 1 35 20q10 20 0 40q-12 19 -35 20q-23 -1 -35 -20q-10 -20 0 -40q12 -19 35 -20v0z" />
    <glyph glyph-name="exclamation" unicode="&#x2755;" horiz-adv-x="64" 
d="M64 384q0 14 -9 23v0q-9 9 -23 9t-23 -9t-9 -23v-256q0 -14 9 -23t23 -9t23 9t9 23v256v0zM32 -32q23 1 35 20q10 20 0 40q-12 19 -35 20q-23 -1 -35 -20q-10 -20 0 -40q12 -19 35 -20v0z" />
    <glyph glyph-name="exclamation" unicode="!" horiz-adv-x="64" 
d="M64 384q0 14 -9 23v0q-9 9 -23 9t-23 -9t-9 -23v-256q0 -14 9 -23t23 -9t23 9t9 23v256v0zM32 -32q23 1 35 20q10 20 0 40q-12 19 -35 20q-23 -1 -35 -20q-10 -20 0 -40q12 -19 35 -20v0z" />
    <glyph glyph-name="hashtag" unicode="&#xf292;" horiz-adv-x="448" 
d="M181 416q14 -3 21 -13v0q7 -11 6 -24l-10 -59h95l11 69q3 14 13 21q11 7 24 6q14 -3 21 -13q7 -11 5 -24l-9 -59h58q14 0 23 -9t9 -23t-9 -23t-23 -9h-69l-21 -128h58q14 0 23 -9t9 -23t-9 -23t-23 -9h-69l-11 -69q-3 -14 -13 -21q-11 -7 -24 -6q-14 3 -21 13
q-7 11 -5 24l9 59h-95l-11 -69q-3 -14 -13 -21q-11 -8 -24 -6q-14 3 -21 13q-7 11 -5 24l9 59h-58q-14 0 -23 9t-9 23t9 23t23 9h69l21 128h-58q-14 0 -23 9t-9 23t9 23t23 9h69l11 69q3 14 13 21q11 7 24 6v0zM187 256l-21 -128h95l21 128h-95v0z" />
    <glyph glyph-name="hashtag" unicode="#" horiz-adv-x="448" 
d="M181 416q14 -3 21 -13v0q7 -11 6 -24l-10 -59h95l11 69q3 14 13 21q11 7 24 6q14 -3 21 -13q7 -11 5 -24l-9 -59h58q14 0 23 -9t9 -23t-9 -23t-23 -9h-69l-21 -128h58q14 0 23 -9t9 -23t-9 -23t-23 -9h-69l-11 -69q-3 -14 -13 -21q-11 -7 -24 -6q-14 3 -21 13
q-7 11 -5 24l9 59h-95l-11 -69q-3 -14 -13 -21q-11 -8 -24 -6q-14 3 -21 13q-7 11 -5 24l9 59h-58q-14 0 -23 9t-9 23t9 23t23 9h69l21 128h-58q-14 0 -23 9t-9 23t9 23t23 9h69l11 69q3 14 13 21q11 7 24 6v0zM187 256l-21 -128h95l21 128h-95v0z" />
    <glyph glyph-name="dollar-sign" unicode="&#x1f4b2;" horiz-adv-x="320" 
d="M160 448q14 0 23 -9v0q9 -9 9 -23v-36h5v0l1 -1l48 -8q13 -3 20 -14q8 -10 6 -24q-3 -13 -14 -20q-10 -7 -24 -5l-47 8q-48 7 -78 -6q-28 -12 -29 -28q-3 -15 1 -20q2 -6 13 -13q24 -15 73 -27l3 -1h1q22 -5 45 -13q24 -8 44 -20q22 -14 36 -40q12 -27 6 -59
q-6 -29 -23 -48q-18 -19 -43 -29q-20 -8 -44 -11v-33q0 -14 -9 -23t-23 -9t-23 9t-9 23v35h-1v0h-1v0q-19 3 -44 10q-26 7 -47 16q-12 6 -17 18q-4 12 1 25q6 12 18 16q11 5 24 0q17 -7 38 -13t37 -9q49 -6 76 5q25 11 27 29q2 16 -1 21q-3 6 -13 13q-25 15 -74 26l-3 1v0v0
q-22 6 -46 14q-24 7 -44 20q-22 14 -35 40q-13 27 -6 59q5 28 24 47t44 29q20 8 43 11v35q0 14 9 23t23 9v0z" />
    <glyph glyph-name="dollar-sign" unicode="&#xf155;" horiz-adv-x="320" 
d="M160 448q14 0 23 -9v0q9 -9 9 -23v-36h5v0l1 -1l48 -8q13 -3 20 -14q8 -10 6 -24q-3 -13 -14 -20q-10 -7 -24 -5l-47 8q-48 7 -78 -6q-28 -12 -29 -28q-3 -15 1 -20q2 -6 13 -13q24 -15 73 -27l3 -1h1q22 -5 45 -13q24 -8 44 -20q22 -14 36 -40q12 -27 6 -59
q-6 -29 -23 -48q-18 -19 -43 -29q-20 -8 -44 -11v-33q0 -14 -9 -23t-23 -9t-23 9t-9 23v35h-1v0h-1v0q-19 3 -44 10q-26 7 -47 16q-12 6 -17 18q-4 12 1 25q6 12 18 16q11 5 24 0q17 -7 38 -13t37 -9q49 -6 76 5q25 11 27 29q2 16 -1 21q-3 6 -13 13q-25 15 -74 26l-3 1v0v0
q-22 6 -46 14q-24 7 -44 20q-22 14 -35 40q-13 27 -6 59q5 28 24 47t44 29q20 8 43 11v35q0 14 9 23t23 9v0z" />
    <glyph glyph-name="dollar-sign" unicode="$" horiz-adv-x="320" 
d="M160 448q14 0 23 -9v0q9 -9 9 -23v-36h5v0l1 -1l48 -8q13 -3 20 -14q8 -10 6 -24q-3 -13 -14 -20q-10 -7 -24 -5l-47 8q-48 7 -78 -6q-28 -12 -29 -28q-3 -15 1 -20q2 -6 13 -13q24 -15 73 -27l3 -1h1q22 -5 45 -13q24 -8 44 -20q22 -14 36 -40q12 -27 6 -59
q-6 -29 -23 -48q-18 -19 -43 -29q-20 -8 -44 -11v-33q0 -14 -9 -23t-23 -9t-23 9t-9 23v35h-1v0h-1v0q-19 3 -44 10q-26 7 -47 16q-12 6 -17 18q-4 12 1 25q6 12 18 16q11 5 24 0q17 -7 38 -13t37 -9q49 -6 76 5q25 11 27 29q2 16 -1 21q-3 6 -13 13q-25 15 -74 26l-3 1v0v0
q-22 6 -46 14q-24 7 -44 20q-22 14 -35 40q-13 27 -6 59q5 28 24 47t44 29q20 8 43 11v35q0 14 9 23t23 9v0z" />
    <glyph glyph-name="percent" unicode="&#xf541;" horiz-adv-x="384" 
d="M375 329q9 10 9 23v0q0 13 -9 23q-10 9 -23 9t-23 -9l-320 -320q-9 -10 -9 -23t9 -23q10 -9 23 -9t23 9l320 320v0zM128 320q-1 36 -32 55q-32 18 -64 0q-31 -19 -32 -55q1 -36 32 -55q32 -18 64 0q31 19 32 55v0zM384 64q-1 36 -32 55q-32 18 -64 0q-31 -19 -32 -55
q1 -36 32 -55q32 -18 64 0q31 19 32 55v0z" />
    <glyph glyph-name="percent" unicode="&#xf295;" horiz-adv-x="384" 
d="M375 329q9 10 9 23v0q0 13 -9 23q-10 9 -23 9t-23 -9l-320 -320q-9 -10 -9 -23t9 -23q10 -9 23 -9t23 9l320 320v0zM128 320q-1 36 -32 55q-32 18 -64 0q-31 -19 -32 -55q1 -36 32 -55q32 -18 64 0q31 19 32 55v0zM384 64q-1 36 -32 55q-32 18 -64 0q-31 -19 -32 -55
q1 -36 32 -55q32 -18 64 0q31 19 32 55v0z" />
    <glyph glyph-name="percent" unicode="%" horiz-adv-x="384" 
d="M375 329q9 10 9 23v0q0 13 -9 23q-10 9 -23 9t-23 -9l-320 -320q-9 -10 -9 -23t9 -23q10 -9 23 -9t23 9l320 320v0zM128 320q-1 36 -32 55q-32 18 -64 0q-31 -19 -32 -55q1 -36 32 -55q32 -18 64 0q31 19 32 55v0zM384 64q-1 36 -32 55q-32 18 -64 0q-31 -19 -32 -55
q1 -36 32 -55q32 -18 64 0q31 19 32 55v0z" />
    <glyph glyph-name="asterisk" unicode="&#xf069;" horiz-adv-x="384" 
d="M192 416q14 0 23 -9v0q9 -9 9 -23v-136l112 67q11 7 24 4q12 -3 19 -15q7 -11 4 -24q-3 -12 -15 -20l-114 -68l115 -69q11 -7 14 -19q3 -13 -3 -25q-8 -11 -20 -14q-13 -3 -24 3l-112 67v-135q0 -14 -9 -23t-23 -9t-23 9t-9 23v135l-111 -66q-12 -7 -25 -4q-12 3 -19 15
q-7 11 -4 24q3 12 15 19l114 69l-114 69q-12 7 -15 19q-3 13 4 24q7 12 19 15q13 3 24 -4l112 -67v136q0 14 9 23t23 9v0z" />
    <glyph glyph-name="asterisk" unicode="&#x2731;" horiz-adv-x="384" 
d="M192 416q14 0 23 -9v0q9 -9 9 -23v-136l112 67q11 7 24 4q12 -3 19 -15q7 -11 4 -24q-3 -12 -15 -20l-114 -68l115 -69q11 -7 14 -19q3 -13 -3 -25q-8 -11 -20 -14q-13 -3 -24 3l-112 67v-135q0 -14 -9 -23t-23 -9t-23 9t-9 23v135l-111 -66q-12 -7 -25 -4q-12 3 -19 15
q-7 11 -4 24q3 12 15 19l114 69l-114 69q-12 7 -15 19q-3 13 4 24q7 12 19 15q13 3 24 -4l112 -67v136q0 14 9 23t23 9v0z" />
    <glyph glyph-name="asterisk" unicode="*" horiz-adv-x="384" 
d="M192 416q14 0 23 -9v0q9 -9 9 -23v-136l112 67q11 7 24 4q12 -3 19 -15q7 -11 4 -24q-3 -12 -15 -20l-114 -68l115 -69q11 -7 14 -19q3 -13 -3 -25q-8 -11 -20 -14q-13 -3 -24 3l-112 67v-135q0 -14 -9 -23t-23 -9t-23 9t-9 23v135l-111 -66q-12 -7 -25 -4q-12 3 -19 15
q-7 11 -4 24q3 12 15 19l114 69l-114 69q-12 7 -15 19q-3 13 4 24q7 12 19 15q13 3 24 -4l112 -67v136q0 14 9 23t23 9v0z" />
    <glyph glyph-name="plus" unicode="&#xf067;" horiz-adv-x="448" 
d="M256 368q0 14 -9 23v0q-9 9 -23 9t-23 -9t-9 -23v-144h-144q-14 0 -23 -9t-9 -23t9 -23t23 -9h144v-144q0 -14 9 -23t23 -9t23 9t9 23v144h144q14 0 23 9t9 23t-9 23t-23 9h-144v144v0z" />
    <glyph glyph-name="plus" unicode="&#x2795;" horiz-adv-x="448" 
d="M256 368q0 14 -9 23v0q-9 9 -23 9t-23 -9t-9 -23v-144h-144q-14 0 -23 -9t-9 -23t9 -23t23 -9h144v-144q0 -14 9 -23t23 -9t23 9t9 23v144h144q14 0 23 9t9 23t-9 23t-23 9h-144v144v0z" />
    <glyph glyph-name="plus" unicode="+" horiz-adv-x="448" 
d="M256 368q0 14 -9 23v0q-9 9 -23 9t-23 -9t-9 -23v-144h-144q-14 0 -23 -9t-9 -23t9 -23t23 -9h144v-144q0 -14 9 -23t23 -9t23 9t9 23v144h144q14 0 23 9t9 23t-9 23t-23 9h-144v144v0z" />
    <glyph glyph-name="0" unicode="0" horiz-adv-x="320" 
d="M0 256q2 68 47 113v0q45 45 113 47q68 -2 113 -47t47 -113v-128q-2 -68 -47 -113t-113 -47q-68 2 -113 47t-47 113v128v0zM160 352q-41 -1 -68 -28v0q-27 -27 -28 -68v-128q1 -41 28 -68t68 -28q41 1 68 28t28 68v128q-1 41 -28 68t-68 28v0z" />
    <glyph glyph-name="1" unicode="1" horiz-adv-x="256" 
d="M160 384q-1 19 -17 28q-17 9 -33 -1l-96 -64q-11 -8 -13 -21q-3 -12 4 -24q8 -11 21 -13q12 -3 24 4l46 31v-292h-64q-14 0 -23 -9t-9 -23t9 -23t23 -9h96h96q14 0 23 9t9 23t-9 23t-23 9h-64v352v0z" />
    <glyph glyph-name="2" unicode="2" horiz-adv-x="320" 
d="M143 352q-34 0 -58 -24l-30 -31q-10 -9 -23 -9t-23 9q-9 10 -9 23t9 23l31 30q43 42 103 43q62 -2 102 -43q41 -40 43 -102q-1 -60 -42 -103l-137 -136h179q14 0 23 -9t9 -23t-9 -23t-23 -9h-256q-21 1 -30 20q-7 19 7 35l191 190q23 24 24 58q-1 34 -24 57t-57 24v0z
" />
    <glyph glyph-name="3" unicode="3" horiz-adv-x="320" 
d="M0 384q0 14 9 23v0q9 9 23 9h240q21 -1 30 -20q7 -21 -8 -36l-132 -120h22q58 -1 96 -40q39 -38 40 -96q-1 -58 -40 -96q-38 -39 -96 -40h-79q-32 0 -58 17q-27 16 -42 45l-2 4q-5 12 -1 24t16 19q12 5 24 1t19 -16l2 -4q13 -25 42 -26h79q31 1 51 21t21 51q-1 31 -21 51
t-51 21h-104q-21 1 -30 20q-7 21 8 36l132 120h-158q-14 0 -23 9t-9 23v0z" />
    <glyph glyph-name="4" unicode="4" horiz-adv-x="384" 
d="M189 370q5 13 1 25v0q-4 12 -16 18q-13 5 -25 1t-18 -16l-128 -272q-7 -16 2 -31q10 -15 27 -15h224v-80q0 -14 9 -23t23 -9t23 9t9 23v80h32q14 0 23 9t9 23t-9 23t-23 9h-32v144q0 14 -9 23t-23 9t-23 -9t-9 -23v-144h-174l107 226v0z" />
    <glyph glyph-name="5" unicode="5" horiz-adv-x="320" 
d="M33 390q6 24 31 26h192q14 0 23 -9t9 -23t-9 -23t-23 -9h-165l-21 -112h114q58 -1 96 -40q39 -38 40 -96q-1 -58 -40 -96q-38 -39 -96 -40h-83q-31 0 -55 16q-25 15 -38 41l-5 9q-5 12 -1 24t16 19q12 5 24 1t19 -16l4 -8q11 -21 36 -22h83q31 1 51 21t21 51
q-1 31 -21 51t-51 21h-152q-15 0 -25 11q-9 12 -7 27l33 176v0z" />
    <glyph glyph-name="6" unicode="6" horiz-adv-x="320" 
d="M232 363q9 11 8 24v0q-1 12 -11 21q-11 9 -24 8q-12 -1 -21 -11l-145 -172q-37 -43 -39 -100v-2v-3v0v0q2 -68 47 -113t113 -47q68 2 113 47t47 113q-2 66 -44 110q-43 45 -107 50l63 75v0zM256 128q0 -26 -13 -48v0q-13 -22 -35 -35q-23 -13 -48 -13t-48 13
q-22 13 -35 35t-13 48t13 48t35 35q23 13 48 13t48 -13q22 -13 35 -35t13 -48v0z" />
    <glyph glyph-name="7" unicode="7" horiz-adv-x="320" 
d="M0 384q0 14 9 23v0q9 9 23 9h256q18 -1 28 -16q8 -16 0 -32l-224 -384q-8 -12 -20 -15t-24 3q-12 7 -15 20q-3 12 3 24l196 336h-200q-14 0 -23 9t-9 23v0z" />
    <glyph glyph-name="8" unicode="8" horiz-adv-x="320" 
d="M304 288q-1 54 -37 91v0q-37 36 -91 37h-32q-54 -1 -91 -37q-36 -37 -37 -91q1 -53 36 -89q-24 -18 -38 -44q-14 -27 -14 -59q1 -54 37 -91q37 -36 91 -37h64q54 1 91 37q36 37 37 91q0 32 -14 59q-14 26 -38 44q35 36 36 89v0zM176 160h16q27 -1 45 -19t19 -45
q-1 -27 -19 -45t-45 -19h-64q-27 1 -45 19t-19 45q1 27 19 45t45 19h16v0v0h32v0v0v0zM176 224v0v0v0h-32v0v0q-27 1 -45 19t-19 45q1 27 19 45t45 19h32q27 -1 45 -19t19 -45q-1 -27 -19 -45t-45 -19v0z" />
    <glyph glyph-name="9" unicode="9" horiz-adv-x="320" 
d="M64 256q0 -26 13 -48v0q13 -22 35 -35q23 -13 48 -13t48 13q22 13 35 35t13 48t-13 48t-35 35q-23 13 -48 13t-48 -13q-22 -13 -35 -35t-13 -48v0zM152 96q-65 5 -108 50v0q-42 44 -44 110q2 68 47 113t113 47q68 -2 113 -47t47 -113v-8q-3 -55 -39 -97l-145 -172
q-9 -10 -21 -11q-13 -1 -24 8q-10 9 -11 21q-1 13 7 24l64 75h1z" />
    <glyph glyph-name="less-than" unicode="&#xf536;" horiz-adv-x="384" 
d="M381 366q5 -12 1 -24v0q-4 -12 -16 -19l-262 -131l262 -131q12 -7 16 -19t-1 -24q-7 -12 -19 -16t-24 1l-320 160q-17 10 -18 29q1 19 18 29l320 160q12 5 24 1t19 -16v0z" />
    <glyph glyph-name="less-than" unicode="&#x3c;" horiz-adv-x="384" 
d="M381 366q5 -12 1 -24v0q-4 -12 -16 -19l-262 -131l262 -131q12 -7 16 -19t-1 -24q-7 -12 -19 -16t-24 1l-320 160q-17 10 -18 29q1 19 18 29l320 160q12 5 24 1t19 -16v0z" />
    <glyph glyph-name="equals" unicode="&#xf52c;" horiz-adv-x="448" 
d="M48 320q-14 0 -23 -9v0q-9 -9 -9 -23t9 -23t23 -9h352q14 0 23 9t9 23t-9 23t-23 9h-352v0zM48 128q-14 0 -23 -9v0q-9 -9 -9 -23t9 -23t23 -9h352q14 0 23 9t9 23t-9 23t-23 9h-352v0z" />
    <glyph glyph-name="equals" unicode="=" horiz-adv-x="448" 
d="M48 320q-14 0 -23 -9v0q-9 -9 -9 -23t9 -23t23 -9h352q14 0 23 9t9 23t-9 23t-23 9h-352v0zM48 128q-14 0 -23 -9v0q-9 -9 -9 -23t9 -23t23 -9h352q14 0 23 9t9 23t-9 23t-23 9h-352v0z" />
    <glyph glyph-name="greater-than" unicode="&#xf531;" horiz-adv-x="384" 
d="M3 366q-5 -12 -1 -24v0q4 -12 16 -19l263 -131l-263 -131q-12 -7 -16 -19t1 -24q7 -12 19 -16t24 1l320 160q17 10 18 29q-1 19 -18 29l-320 160q-12 5 -24 1t-19 -16v0z" />
    <glyph glyph-name="greater-than" unicode="&#x3e;" horiz-adv-x="384" 
d="M3 366q-5 -12 -1 -24v0q4 -12 16 -19l263 -131l-263 -131q-12 -7 -16 -19t1 -24q7 -12 19 -16t24 1l320 160q17 10 18 29q-1 19 -18 29l-320 160q-12 5 -24 1t-19 -16v0z" />
    <glyph glyph-name="question" unicode="&#xf128;" horiz-adv-x="320" 
d="M80 288q1 27 19 45v0q18 18 45 19h32q27 -1 45 -19t19 -45v-4q-1 -34 -29 -53l-43 -28q-39 -26 -40 -74v-1q0 -14 9 -23t23 -9t23 9t9 23v1q0 13 11 21l42 27q28 18 43 46q16 28 16 61v4q-1 54 -37 91q-37 36 -91 37h-32q-54 -1 -91 -37q-36 -37 -37 -91q0 -14 9 -23
t23 -9t23 9t9 23v0zM160 -32q23 1 35 20q10 20 0 40q-12 19 -35 20q-23 -1 -35 -20q-10 -20 0 -40q12 -19 35 -20v0z" />
    <glyph glyph-name="question" unicode="&#x2754;" horiz-adv-x="320" 
d="M80 288q1 27 19 45v0q18 18 45 19h32q27 -1 45 -19t19 -45v-4q-1 -34 -29 -53l-43 -28q-39 -26 -40 -74v-1q0 -14 9 -23t23 -9t23 9t9 23v1q0 13 11 21l42 27q28 18 43 46q16 28 16 61v4q-1 54 -37 91q-37 36 -91 37h-32q-54 -1 -91 -37q-36 -37 -37 -91q0 -14 9 -23
t23 -9t23 9t9 23v0zM160 -32q23 1 35 20q10 20 0 40q-12 19 -35 20q-23 -1 -35 -20q-10 -20 0 -40q12 -19 35 -20v0z" />
    <glyph glyph-name="question" unicode="&#x2753;" horiz-adv-x="320" 
d="M80 288q1 27 19 45v0q18 18 45 19h32q27 -1 45 -19t19 -45v-4q-1 -34 -29 -53l-43 -28q-39 -26 -40 -74v-1q0 -14 9 -23t23 -9t23 9t9 23v1q0 13 11 21l42 27q28 18 43 46q16 28 16 61v4q-1 54 -37 91q-37 36 -91 37h-32q-54 -1 -91 -37q-36 -37 -37 -91q0 -14 9 -23
t23 -9t23 9t9 23v0zM160 -32q23 1 35 20q10 20 0 40q-12 19 -35 20q-23 -1 -35 -20q-10 -20 0 -40q12 -19 35 -20v0z" />
    <glyph glyph-name="question" unicode="?" horiz-adv-x="320" 
d="M80 288q1 27 19 45v0q18 18 45 19h32q27 -1 45 -19t19 -45v-4q-1 -34 -29 -53l-43 -28q-39 -26 -40 -74v-1q0 -14 9 -23t23 -9t23 9t9 23v1q0 13 11 21l42 27q28 18 43 46q16 28 16 61v4q-1 54 -37 91q-37 36 -91 37h-32q-54 -1 -91 -37q-36 -37 -37 -91q0 -14 9 -23
t23 -9t23 9t9 23v0zM160 -32q23 1 35 20q10 20 0 40q-12 19 -35 20q-23 -1 -35 -20q-10 -20 0 -40q12 -19 35 -20v0z" />
    <glyph glyph-name="at" unicode="&#xf1fa;" 
d="M256 384q-82 -2 -136 -56v0q-54 -54 -56 -136q2 -82 56 -136t136 -56q14 0 23 -9t9 -23t-9 -23t-23 -9q-72 1 -129 35q-58 34 -92 92q-34 57 -35 129q1 72 35 129q34 58 92 92q57 34 129 35q72 -1 129 -35q58 -34 92 -92q34 -57 35 -129v-32q-1 -41 -28 -68t-68 -28
q-45 1 -73 34q-36 -33 -87 -34q-54 1 -91 37q-36 37 -37 91q1 54 37 91q37 36 91 37q43 -1 75 -24q8 8 21 8q14 0 23 -9t9 -23v-80v-32q0 -14 9 -23t23 -9t23 9t9 23v32q-2 82 -56 136t-136 56v0zM320 192q-1 36 -32 55q-32 18 -64 0q-31 -19 -32 -55q1 -36 32 -55
q32 -18 64 0q31 19 32 55v0z" />
    <glyph glyph-name="at" unicode="@" 
d="M256 384q-82 -2 -136 -56v0q-54 -54 -56 -136q2 -82 56 -136t136 -56q14 0 23 -9t9 -23t-9 -23t-23 -9q-72 1 -129 35q-58 34 -92 92q-34 57 -35 129q1 72 35 129q34 58 92 92q57 34 129 35q72 -1 129 -35q58 -34 92 -92q34 -57 35 -129v-32q-1 -41 -28 -68t-68 -28
q-45 1 -73 34q-36 -33 -87 -34q-54 1 -91 37q-36 37 -37 91q1 54 37 91q37 36 91 37q43 -1 75 -24q8 8 21 8q14 0 23 -9t9 -23v-80v-32q0 -14 9 -23t23 -9t23 9t9 23v32q-2 82 -56 136t-136 56v0zM320 192q-1 36 -32 55q-32 18 -64 0q-31 -19 -32 -55q1 -36 32 -55
q32 -18 64 0q31 19 32 55v0z" />
    <glyph glyph-name="a" unicode="a" horiz-adv-x="384" 
d="M222 396q-9 19 -30 20q-21 -1 -29 -20l-120 -288l-40 -96q-5 -12 -1 -24q5 -12 18 -18q12 -4 24 0q12 5 18 18l31 76h198l32 -76q5 -13 17 -18q12 -4 24 0q13 6 18 18q4 12 0 24l-40 96l-120 288v0zM264 128h-144l72 173l72 -173v0z" />
    <glyph glyph-name="a" unicode="A" horiz-adv-x="384" 
d="M222 396q-9 19 -30 20q-21 -1 -29 -20l-120 -288l-40 -96q-5 -12 -1 -24q5 -12 18 -18q12 -4 24 0q12 5 18 18l31 76h198l32 -76q5 -13 17 -18q12 -4 24 0q13 6 18 18q4 12 0 24l-40 96l-120 288v0zM264 128h-144l72 173l72 -173v0z" />
    <glyph glyph-name="b" unicode="b" horiz-adv-x="320" 
d="M64 416q-27 -1 -45 -19v0q-18 -18 -19 -45v-160v-160q1 -27 19 -45t45 -19h128q54 1 91 37q36 37 37 91q0 35 -17 64t-45 46q29 34 30 82q-1 54 -37 91q-37 36 -91 37h-96v0zM160 224h-96v128h96q27 -1 45 -19t19 -45q-1 -27 -19 -45t-45 -19v0zM64 160h96h32
q27 -1 45 -19t19 -45q-1 -27 -19 -45t-45 -19h-128v128v0z" />
    <glyph glyph-name="b" unicode="B" horiz-adv-x="320" 
d="M64 416q-27 -1 -45 -19v0q-18 -18 -19 -45v-160v-160q1 -27 19 -45t45 -19h128q54 1 91 37q36 37 37 91q0 35 -17 64t-45 46q29 34 30 82q-1 54 -37 91q-37 36 -91 37h-96v0zM160 224h-96v128h96q27 -1 45 -19t19 -45q-1 -27 -19 -45t-45 -19v0zM64 160h96h32
q27 -1 45 -19t19 -45q-1 -27 -19 -45t-45 -19h-128v128v0z" />
    <glyph glyph-name="c" unicode="c" horiz-adv-x="384" 
d="M329 305q-49 47 -109 47v0q-60 0 -109 -47q-47 -49 -47 -113t47 -113q49 -47 109 -47t109 47q10 9 23 9t22 -9q10 -10 10 -23t-10 -23q-68 -65 -154 -65t-154 65q-44 45 -59 102q-14 57 0 114q15 57 59 101q68 66 154 66t154 -66q10 -10 10 -22q0 -13 -10 -23
q-9 -9 -22 -9t-23 9v0z" />
    <glyph glyph-name="c" unicode="C" horiz-adv-x="384" 
d="M329 305q-49 47 -109 47v0q-60 0 -109 -47q-47 -49 -47 -113t47 -113q49 -47 109 -47t109 47q10 9 23 9t22 -9q10 -10 10 -23t-10 -23q-68 -65 -154 -65t-154 65q-44 45 -59 102q-14 57 0 114q15 57 59 101q68 66 154 66t154 -66q10 -10 10 -22q0 -13 -10 -23
q-9 -9 -22 -9t-23 9v0z" />
    <glyph glyph-name="d" unicode="d" horiz-adv-x="384" 
d="M0 352q1 27 19 45v0q18 18 45 19h96q63 -1 113 -31q51 -29 80 -80q30 -50 31 -113q-1 -63 -31 -113q-29 -51 -80 -80q-50 -30 -113 -31h-96q-27 1 -45 19t-19 45v320v0zM160 352h-96v-320h96q68 2 113 47t47 113q-2 68 -47 113t-113 47v0z" />
    <glyph glyph-name="d" unicode="D" horiz-adv-x="384" 
d="M0 352q1 27 19 45v0q18 18 45 19h96q63 -1 113 -31q51 -29 80 -80q30 -50 31 -113q-1 -63 -31 -113q-29 -51 -80 -80q-50 -30 -113 -31h-96q-27 1 -45 19t-19 45v320v0zM160 352h-96v-320h96q68 2 113 47t47 113q-2 68 -47 113t-113 47v0z" />
    <glyph glyph-name="e" unicode="e" horiz-adv-x="320" 
d="M64 416q-27 -1 -45 -19v0q-18 -18 -19 -45v-160v-160q1 -27 19 -45t45 -19h224q14 0 23 9t9 23t-9 23t-23 9h-224v128h160q14 0 23 9t9 23t-9 23t-23 9h-160v128h224q14 0 23 9t9 23t-9 23t-23 9h-224v0z" />
    <glyph glyph-name="e" unicode="E" horiz-adv-x="320" 
d="M64 416q-27 -1 -45 -19v0q-18 -18 -19 -45v-160v-160q1 -27 19 -45t45 -19h224q14 0 23 9t9 23t-9 23t-23 9h-224v128h160q14 0 23 9t9 23t-9 23t-23 9h-160v128h224q14 0 23 9t9 23t-9 23t-23 9h-224v0z" />
    <glyph glyph-name="f" unicode="f" horiz-adv-x="320" 
d="M64 416q-27 -1 -45 -19v0q-18 -18 -19 -45v-160v-192q0 -14 9 -23t23 -9t23 9t9 23v160h160q14 0 23 9t9 23t-9 23t-23 9h-160v128h224q14 0 23 9t9 23t-9 23t-23 9h-224v0z" />
    <glyph glyph-name="f" unicode="F" horiz-adv-x="320" 
d="M64 416q-27 -1 -45 -19v0q-18 -18 -19 -45v-160v-192q0 -14 9 -23t23 -9t23 9t9 23v160h160q14 0 23 9t9 23t-9 23t-23 9h-160v128h224q14 0 23 9t9 23t-9 23t-23 9h-224v0z" />
    <glyph glyph-name="g" unicode="g" horiz-adv-x="448" 
d="M224 352q-68 -2 -113 -47v0q-45 -45 -47 -113q2 -68 47 -113t113 -47q59 1 102 37q43 35 55 91h-125q-14 0 -23 9t-9 23t9 23t23 9h144q20 0 34 -14t13 -37q-9 -88 -71 -145q-62 -58 -152 -60q-63 1 -113 31q-51 29 -80 80q-30 50 -31 113q1 63 31 113q29 51 80 80
q50 30 113 31q88 -2 149 -57q10 -9 11 -22t-8 -23q-10 -10 -22 -11q-13 -1 -23 8q-44 40 -107 41v0z" />
    <glyph glyph-name="g" unicode="G" horiz-adv-x="448" 
d="M224 352q-68 -2 -113 -47v0q-45 -45 -47 -113q2 -68 47 -113t113 -47q59 1 102 37q43 35 55 91h-125q-14 0 -23 9t-9 23t9 23t23 9h144q20 0 34 -14t13 -37q-9 -88 -71 -145q-62 -58 -152 -60q-63 1 -113 31q-51 29 -80 80q-30 50 -31 113q1 63 31 113q29 51 80 80
q50 30 113 31q88 -2 149 -57q10 -9 11 -22t-8 -23q-10 -10 -22 -11q-13 -1 -23 8q-44 40 -107 41v0z" />
    <glyph glyph-name="h" unicode="h" horiz-adv-x="384" 
d="M320 192v-192q0 -14 9 -23t23 -9t23 9t9 23v224v160q0 14 -9 23t-23 9t-23 -9t-9 -23v-128h-256v128q0 14 -9 23t-23 9t-23 -9t-9 -23v-384q0 -14 9 -23t23 -9t23 9t9 23v192h256v0z" />
    <glyph glyph-name="h" unicode="H" horiz-adv-x="384" 
d="M320 192v-192q0 -14 9 -23t23 -9t23 9t9 23v224v160q0 14 -9 23t-23 9t-23 -9t-9 -23v-128h-256v128q0 14 -9 23t-23 9t-23 -9t-9 -23v-384q0 -14 9 -23t23 -9t23 9t9 23v192h256v0z" />
    <glyph glyph-name="i" unicode="i" horiz-adv-x="320" 
d="M32 416q-14 0 -23 -9v0q-9 -9 -9 -23t9 -23t23 -9h96v-320h-96q-14 0 -23 -9t-9 -23t9 -23t23 -9h256q14 0 23 9t9 23t-9 23t-23 9h-96v320h96q14 0 23 9t9 23t-9 23t-23 9h-128h-128v0z" />
    <glyph glyph-name="i" unicode="I" horiz-adv-x="320" 
d="M32 416q-14 0 -23 -9v0q-9 -9 -9 -23t9 -23t23 -9h96v-320h-96q-14 0 -23 -9t-9 -23t9 -23t23 -9h256q14 0 23 9t9 23t-9 23t-23 9h-96v320h96q14 0 23 9t9 23t-9 23t-23 9h-128h-128v0z" />
    <glyph glyph-name="j" unicode="j" horiz-adv-x="320" 
d="M288 416q14 0 23 -9v0q9 -9 9 -23v-256q-2 -68 -47 -113t-113 -47q-68 2 -113 47t-47 113v32q0 14 9 23t23 9t23 -9t9 -23v-32q1 -41 28 -68t68 -28q41 1 68 28t28 68v256q0 14 9 23t23 9v0z" />
    <glyph glyph-name="j" unicode="J" horiz-adv-x="320" 
d="M288 416q14 0 23 -9v0q9 -9 9 -23v-256q-2 -68 -47 -113t-113 -47q-68 2 -113 47t-47 113v32q0 14 9 23t23 9t23 -9t9 -23v-32q1 -41 28 -68t68 -28q41 1 68 28t28 68v256q0 14 9 23t23 9v0z" />
    <glyph glyph-name="k" unicode="k" horiz-adv-x="320" 
d="M311 362q9 10 9 22v0q0 13 -10 23q-10 9 -22 9q-13 0 -23 -10l-155 -160l-46 -47v185q0 14 -9 23t-23 9t-23 -9t-9 -23v-264v-120q0 -14 9 -23t23 -9t23 9t9 23v107l65 67l133 -192q8 -11 20 -14q13 -2 24 6t13 20q3 13 -5 24l-140 203l137 141v0z" />
    <glyph glyph-name="k" unicode="K" horiz-adv-x="320" 
d="M311 362q9 10 9 22v0q0 13 -10 23q-10 9 -22 9q-13 0 -23 -10l-155 -160l-46 -47v185q0 14 -9 23t-23 9t-23 -9t-9 -23v-264v-120q0 -14 9 -23t23 -9t23 9t9 23v107l65 67l133 -192q8 -11 20 -14q13 -2 24 6t13 20q3 13 -5 24l-140 203l137 141v0z" />
    <glyph glyph-name="l" unicode="l" horiz-adv-x="320" 
d="M64 416q14 0 23 -9v0q9 -9 9 -23v-352h192q14 0 23 -9t9 -23t-9 -23t-23 -9h-224q-14 0 -23 9t-9 23v384q0 14 9 23t23 9v0z" />
    <glyph glyph-name="l" unicode="L" horiz-adv-x="320" 
d="M64 416q14 0 23 -9v0q9 -9 9 -23v-352h192q14 0 23 -9t9 -23t-9 -23t-23 -9h-224q-14 0 -23 9t-9 23v384q0 14 9 23t23 9v0z" />
    <glyph glyph-name="m" unicode="m" horiz-adv-x="448" 
d="M23 415q22 5 36 -13l165 -248l165 248q14 18 36 13q22 -8 23 -31v-384q0 -14 -9 -23t-23 -9t-23 9t-9 23v278l-133 -200q-10 -14 -27 -14t-27 14l-133 200v-278q0 -14 -9 -23t-23 -9t-23 9t-9 23v384q1 23 23 31v0z" />
    <glyph glyph-name="m" unicode="M" horiz-adv-x="448" 
d="M23 415q22 5 36 -13l165 -248l165 248q14 18 36 13q22 -8 23 -31v-384q0 -14 -9 -23t-23 -9t-23 9t-9 23v278l-133 -200q-10 -14 -27 -14t-27 14l-133 200v-278q0 -14 -9 -23t-23 -9t-23 9t-9 23v384q1 23 23 31v0z" />
    <glyph glyph-name="n" unicode="n" horiz-adv-x="384" 
d="M21 414q21 6 36 -10l263 -316v296q0 14 9 23t23 9t23 -9t9 -23v-384q-1 -22 -21 -30q-21 -6 -36 9l-263 317v-296q0 -14 -9 -23t-23 -9t-23 9t-9 23v384q1 22 21 30v0z" />
    <glyph glyph-name="n" unicode="N" horiz-adv-x="384" 
d="M21 414q21 6 36 -10l263 -316v296q0 14 9 23t23 9t23 -9t9 -23v-384q-1 -22 -21 -30q-21 -6 -36 9l-263 317v-296q0 -14 -9 -23t-23 -9t-23 9t-9 23v384q1 22 21 30v0z" />
    <glyph glyph-name="o" unicode="o" horiz-adv-x="448" 
d="M224 352q-43 0 -80 -21v0q-37 -22 -59 -59q-21 -38 -21 -80t21 -80q22 -37 59 -59q37 -21 80 -21t80 21q37 22 59 59q21 38 21 80t-21 80q-22 37 -59 59q-37 21 -80 21v0zM448 192q-1 -61 -30 -112v0q-30 -51 -82 -82q-53 -30 -112 -30t-112 30q-52 31 -82 82
q-29 51 -30 112q1 61 30 112q30 51 82 82q53 30 112 30t112 -30q52 -31 82 -82q29 -51 30 -112v0z" />
    <glyph glyph-name="o" unicode="O" horiz-adv-x="448" 
d="M224 352q-43 0 -80 -21v0q-37 -22 -59 -59q-21 -38 -21 -80t21 -80q22 -37 59 -59q37 -21 80 -21t80 21q37 22 59 59q21 38 21 80t-21 80q-22 37 -59 59q-37 21 -80 21v0zM448 192q-1 -61 -30 -112v0q-30 -51 -82 -82q-53 -30 -112 -30t-112 30q-52 31 -82 82
q-29 51 -30 112q1 61 30 112q30 51 82 82q53 30 112 30t112 -30q52 -31 82 -82q29 -51 30 -112v0z" />
    <glyph glyph-name="p" unicode="p" horiz-adv-x="320" 
d="M0 352q1 27 19 45v0q18 18 45 19h96q68 -2 113 -47t47 -113q-2 -68 -47 -113t-113 -47h-96v-96q0 -14 -9 -23t-23 -9t-23 9t-9 23v128v224v0zM64 160h96q41 1 68 28t28 68q-1 41 -28 68t-68 28h-96v-192v0z" />
    <glyph glyph-name="p" unicode="P" horiz-adv-x="320" 
d="M0 352q1 27 19 45v0q18 18 45 19h96q68 -2 113 -47t47 -113q-2 -68 -47 -113t-113 -47h-96v-96q0 -14 -9 -23t-23 -9t-23 9t-9 23v128v224v0zM64 160h96q41 1 68 28t28 68q-1 41 -28 68t-68 28h-96v-192v0z" />
    <glyph glyph-name="q" unicode="q" horiz-adv-x="448" 
d="M64 192q2 -68 47 -113v0q45 -45 113 -47q44 1 79 21l-72 86q-8 11 -7 24t12 22q10 8 23 7t22 -12l71 -85q31 42 32 97q-2 68 -47 113t-113 47q-68 -2 -113 -47t-47 -113v0zM345 3q-53 -34 -121 -35q-63 1 -113 31q-51 29 -80 80q-30 50 -31 113q1 63 31 113q29 51 80 80
q50 30 113 31q63 -1 113 -31q51 -29 80 -80q30 -50 31 -113q-2 -86 -55 -147l48 -57q8 -10 7 -23t-12 -22q-10 -8 -23 -7t-22 11l-46 56v0z" />
    <glyph glyph-name="q" unicode="Q" horiz-adv-x="448" 
d="M64 192q2 -68 47 -113v0q45 -45 113 -47q44 1 79 21l-72 86q-8 11 -7 24t12 22q10 8 23 7t22 -12l71 -85q31 42 32 97q-2 68 -47 113t-113 47q-68 -2 -113 -47t-47 -113v0zM345 3q-53 -34 -121 -35q-63 1 -113 31q-51 29 -80 80q-30 50 -31 113q1 63 31 113q29 51 80 80
q50 30 113 31q63 -1 113 -31q51 -29 80 -80q30 -50 31 -113q-2 -86 -55 -147l48 -57q8 -10 7 -23t-12 -22q-10 -8 -23 -7t-22 11l-46 56v0z" />
    <glyph glyph-name="r" unicode="r" horiz-adv-x="320" 
d="M64 416q-27 -1 -45 -19v0q-18 -18 -19 -45v-192v-160q0 -14 9 -23t23 -9t23 9t9 23v128h95l103 -146q8 -11 20 -14q13 -2 24 6t14 20q2 13 -6 24l-84 120q40 17 65 53q24 35 25 81q-2 61 -42 102q-41 40 -102 42h-112v0zM176 192h-112v160h112q34 -1 57 -23
q22 -23 23 -57q-1 -34 -23 -57q-23 -22 -57 -23v0z" />
    <glyph glyph-name="r" unicode="R" horiz-adv-x="320" 
d="M64 416q-27 -1 -45 -19v0q-18 -18 -19 -45v-192v-160q0 -14 9 -23t23 -9t23 9t9 23v128h95l103 -146q8 -11 20 -14q13 -2 24 6t14 20q2 13 -6 24l-84 120q40 17 65 53q24 35 25 81q-2 61 -42 102q-41 40 -102 42h-112v0zM176 192h-112v160h112q34 -1 57 -23
q22 -23 23 -57q-1 -34 -23 -57q-23 -22 -57 -23v0z" />
    <glyph glyph-name="s" unicode="s" horiz-adv-x="320" 
d="M99 343q-30 -13 -34 -40q-3 -20 2 -29q4 -10 17 -19q29 -18 85 -32v0q2 -1 3 -1q25 -7 52 -16q26 -10 49 -25q24 -16 38 -45q13 -30 7 -66q-14 -64 -72 -88q-55 -22 -124 -10v0v0q-19 3 -43 11q-25 7 -45 14q-5 2 -9 3q-2 1 -3 1q-13 5 -19 17q-5 11 -1 24t16 19
q11 5 24 1q7 -2 16 -5q1 0 2 -1q20 -6 39 -13q20 -6 33 -8q57 -8 89 6q30 13 34 40q3 20 -2 29q-4 10 -17 19q-29 18 -85 32v0q-2 1 -3 1q-25 7 -52 16q-26 10 -49 25q-24 16 -38 45q-13 30 -7 66l32 -5l-32 5q14 64 72 87q55 23 124 11q11 -1 32 -6q22 -4 34 -7
q13 -4 20 -15q6 -11 3 -24q-4 -13 -15 -20q-11 -6 -24 -3q-10 3 -30 6l-30 6l5 31l-5 -31q-57 8 -89 -7v1z" />
    <glyph glyph-name="s" unicode="S" horiz-adv-x="320" 
d="M99 343q-30 -13 -34 -40q-3 -20 2 -29q4 -10 17 -19q29 -18 85 -32v0q2 -1 3 -1q25 -7 52 -16q26 -10 49 -25q24 -16 38 -45q13 -30 7 -66q-14 -64 -72 -88q-55 -22 -124 -10v0v0q-19 3 -43 11q-25 7 -45 14q-5 2 -9 3q-2 1 -3 1q-13 5 -19 17q-5 11 -1 24t16 19
q11 5 24 1q7 -2 16 -5q1 0 2 -1q20 -6 39 -13q20 -6 33 -8q57 -8 89 6q30 13 34 40q3 20 -2 29q-4 10 -17 19q-29 18 -85 32v0q-2 1 -3 1q-25 7 -52 16q-26 10 -49 25q-24 16 -38 45q-13 30 -7 66l32 -5l-32 5q14 64 72 87q55 23 124 11q11 -1 32 -6q22 -4 34 -7
q13 -4 20 -15q6 -11 3 -24q-4 -13 -15 -20q-11 -6 -24 -3q-10 3 -30 6l-30 6l5 31l-5 -31q-57 8 -89 -7v1z" />
    <glyph glyph-name="t" unicode="t" horiz-adv-x="384" 
d="M32 416q-14 0 -23 -9v0q-9 -9 -9 -23t9 -23t23 -9h128v-352q0 -14 9 -23t23 -9t23 9t9 23v352h128q14 0 23 9t9 23t-9 23t-23 9h-160h-160v0z" />
    <glyph glyph-name="t" unicode="T" horiz-adv-x="384" 
d="M32 416q-14 0 -23 -9v0q-9 -9 -9 -23t9 -23t23 -9h128v-352q0 -14 9 -23t23 -9t23 9t9 23v352h128q14 0 23 9t9 23t-9 23t-23 9h-160h-160v0z" />
    <glyph glyph-name="u" unicode="u" horiz-adv-x="384" 
d="M32 416q14 0 23 -9v0q9 -9 9 -23v-224q1 -54 37 -91q37 -36 91 -37q54 1 91 37q36 37 37 91v224q0 14 9 23t23 9t23 -9t9 -23v-224q-2 -82 -56 -136t-136 -56q-82 2 -136 56t-56 136v224q0 14 9 23t23 9v0z" />
    <glyph glyph-name="u" unicode="U" horiz-adv-x="384" 
d="M32 416q14 0 23 -9v0q9 -9 9 -23v-224q1 -54 37 -91q37 -36 91 -37q54 1 91 37q36 37 37 91v224q0 14 9 23t23 9t23 -9t9 -23v-224q-2 -82 -56 -136t-136 -56q-82 2 -136 56t-56 136v224q0 14 9 23t23 9v0z" />
    <glyph glyph-name="v" unicode="v" horiz-adv-x="384" 
d="M20 413q12 5 24 1v0q12 -5 18 -18l130 -313l131 313q5 13 17 18q12 4 24 -1q13 -5 18 -17q4 -12 0 -24l-160 -384q-9 -19 -30 -20q-21 1 -29 20l-160 384q-5 12 -1 24q5 12 18 17v0z" />
    <glyph glyph-name="v" unicode="V" horiz-adv-x="384" 
d="M20 413q12 5 24 1v0q12 -5 18 -18l130 -313l131 313q5 13 17 18q12 4 24 -1q13 -5 18 -17q4 -12 0 -24l-160 -384q-9 -19 -30 -20q-21 1 -29 20l-160 384q-5 12 -1 24q5 12 18 17v0z" />
    <glyph glyph-name="w" unicode="w" horiz-adv-x="576" 
d="M21 414q13 4 24 -1v0q12 -5 17 -18l110 -294l85 292q8 22 31 23q23 -1 31 -23l85 -292l110 294q5 13 17 18q11 5 24 1q13 -5 18 -17q5 -11 1 -24l-144 -384q-9 -21 -31 -21q-23 2 -30 23l-81 279l-81 -279q-8 -21 -30 -23q-22 0 -31 21l-144 384q-4 13 1 24q5 12 18 17v0
z" />
    <glyph glyph-name="w" unicode="W" horiz-adv-x="576" 
d="M21 414q13 4 24 -1v0q12 -5 17 -18l110 -294l85 292q8 22 31 23q23 -1 31 -23l85 -292l110 294q5 13 17 18q11 5 24 1q13 -5 18 -17q5 -11 1 -24l-144 -384q-9 -21 -31 -21q-23 2 -30 23l-81 279l-81 -279q-8 -21 -30 -23q-22 0 -31 21l-144 384q-4 13 1 24q5 12 18 17v0
z" />
    <glyph glyph-name="x" unicode="x" horiz-adv-x="384" 
d="M377 363q8 11 7 24v0q-1 13 -11 22q-11 8 -24 7t-22 -12l-135 -162l-135 162q-9 11 -22 12t-23 -7q-11 -9 -12 -22t7 -24l143 -171l-143 -172q-8 -10 -7 -23t12 -22q10 -8 23 -7t22 11l135 163l135 -163q9 -10 22 -11t24 7q10 9 11 22t-7 23l-143 172l143 171v0z" />
    <glyph glyph-name="x" unicode="X" horiz-adv-x="384" 
d="M377 363q8 11 7 24v0q-1 13 -11 22q-11 8 -24 7t-22 -12l-135 -162l-135 162q-9 11 -22 12t-23 -7q-11 -9 -12 -22t7 -24l143 -171l-143 -172q-8 -10 -7 -23t12 -22q10 -8 23 -7t22 11l135 163l135 -163q9 -10 22 -11t24 7q10 9 11 22t-7 23l-143 172l143 171v0z" />
    <glyph glyph-name="y" unicode="y" horiz-adv-x="384" 
d="M58 403q-8 10 -21 13v0q-12 2 -24 -6q-10 -8 -13 -21q-2 -12 6 -24l154 -215v-150q0 -14 9 -23t23 -9t23 9t9 23v150l154 215q8 12 6 24q-3 13 -13 21q-12 8 -24 6q-13 -3 -21 -13l-134 -188l-134 188v0z" />
    <glyph glyph-name="y" unicode="Y" horiz-adv-x="384" 
d="M58 403q-8 10 -21 13v0q-12 2 -24 -6q-10 -8 -13 -21q-2 -12 6 -24l154 -215v-150q0 -14 9 -23t23 -9t23 9t9 23v150l154 215q8 12 6 24q-3 13 -13 21q-12 8 -24 6q-13 -3 -21 -13l-134 -188l-134 188v0z" />
    <glyph glyph-name="z" unicode="z" horiz-adv-x="384" 
d="M0 384q0 14 9 23v0q9 9 23 9h320q20 -1 29 -18q8 -19 -4 -35l-277 -331h252q14 0 23 -9t9 -23t-9 -23t-23 -9h-320q-20 1 -29 18q-8 19 4 34l277 332h-252q-14 0 -23 9t-9 23v0z" />
    <glyph glyph-name="z" unicode="Z" horiz-adv-x="384" 
d="M0 384q0 14 9 23v0q9 9 23 9h320q20 -1 29 -18q8 -19 -4 -35l-277 -331h252q14 0 23 -9t9 -23t-9 -23t-23 -9h-320q-20 1 -29 18q-8 19 4 34l277 332h-252q-14 0 -23 9t-9 23v0z" />
    <glyph glyph-name="sterling-sign" unicode="&#xf154;" horiz-adv-x="320" 
d="M112 288q1 27 19 45v0q18 18 45 19q11 0 21 -3l81 -27q13 -4 24 1q12 6 17 19q3 13 -2 24q-6 12 -19 16l-81 27q-20 7 -41 7q-54 -1 -90 -38q-37 -36 -38 -90v-64h-16q-14 0 -23 -9t-9 -23t9 -23t23 -9h16v-45q0 -26 -14 -49l-29 -50q-9 -16 -1 -32q10 -15 28 -16h256
q14 0 23 9t9 23t-9 23t-23 9h-199v1q23 38 23 82v45h112q14 0 23 9t9 23t-9 23t-23 9h-112v64v0z" />
    <glyph glyph-name="sterling-sign" unicode="&#xa3;" horiz-adv-x="320" 
d="M112 288q1 27 19 45v0q18 18 45 19q11 0 21 -3l81 -27q13 -4 24 1q12 6 17 19q3 13 -2 24q-6 12 -19 16l-81 27q-20 7 -41 7q-54 -1 -90 -38q-37 -36 -38 -90v-64h-16q-14 0 -23 -9t-9 -23t9 -23t23 -9h16v-45q0 -26 -14 -49l-29 -50q-9 -16 -1 -32q10 -15 28 -16h256
q14 0 23 9t9 23t-9 23t-23 9h-199v1q23 38 23 82v45h112q14 0 23 9t9 23t-9 23t-23 9h-112v64v0z" />
    <glyph glyph-name="yen-sign" unicode="&#xf157;" horiz-adv-x="320" 
d="M59 402q-8 11 -21 13v0q-12 3 -24 -4q-11 -8 -13 -21q-3 -12 4 -24l95 -142h-52q-14 0 -23 -9t-9 -23t9 -23t23 -9h80v-32h-80q-14 0 -23 -9t-9 -23t9 -23t23 -9h80v-64q0 -14 9 -23t23 -9t23 9t9 23v64h80q14 0 23 9t9 23t-9 23t-23 9h-80v32h80q14 0 23 9t9 23t-9 23
t-23 9h-52l95 142q7 12 4 24q-2 13 -13 21q-12 7 -24 4q-13 -2 -21 -13l-101 -152l-101 152v0z" />
    <glyph glyph-name="yen-sign" unicode="&#xa5;" horiz-adv-x="320" 
d="M59 402q-8 11 -21 13v0q-12 3 -24 -4q-11 -8 -13 -21q-3 -12 4 -24l95 -142h-52q-14 0 -23 -9t-9 -23t9 -23t23 -9h80v-32h-80q-14 0 -23 -9t-9 -23t9 -23t23 -9h80v-64q0 -14 9 -23t23 -9t23 9t9 23v64h80q14 0 23 9t9 23t-9 23t-23 9h-80v32h80q14 0 23 9t9 23t-9 23
t-23 9h-52l95 142q7 12 4 24q-2 13 -13 21q-12 7 -24 4q-13 -2 -21 -13l-101 -152l-101 152v0z" />
    <glyph glyph-name="copyright" unicode="&#xf1f9;" 
d="M256 -64q70 1 128 34v0q58 34 94 94q34 61 34 128t-34 128q-36 60 -94 94q-58 33 -128 34q-70 -1 -128 -34q-58 -34 -94 -94q-34 -61 -34 -128t34 -128q36 -60 94 -94q58 -33 128 -34v0zM199 135q25 -23 57 -23v0q32 0 57 23q17 14 33 0q14 -17 0 -34q-39 -37 -90 -37
t-91 37q-37 40 -37 91t37 90q40 38 91 38t90 -38q14 -17 0 -33q-17 -14 -33 0q-25 23 -57 23t-57 -23q-23 -25 -23 -57t23 -57v0z" />
    <glyph glyph-name="copyright" unicode="&#xa9;" 
d="M256 -64q70 1 128 34v0q58 34 94 94q34 61 34 128t-34 128q-36 60 -94 94q-58 33 -128 34q-70 -1 -128 -34q-58 -34 -94 -94q-34 -61 -34 -128t34 -128q36 -60 94 -94q58 -33 128 -34v0zM199 135q25 -23 57 -23v0q32 0 57 23q17 14 33 0q14 -17 0 -34q-39 -37 -90 -37
t-91 37q-37 40 -37 91t37 90q40 38 91 38t90 -38q14 -17 0 -33q-17 -14 -33 0q-25 23 -57 23t-57 -23q-23 -25 -23 -57t23 -57v0z" />
    <glyph glyph-name="angles-left" unicode="&#xf100;" 
d="M41 215q-9 -10 -9 -23v0q0 -13 9 -23l160 -160q10 -9 23 -9t23 9q9 10 9 23t-9 23l-138 137l138 137q9 10 9 23t-9 23q-10 9 -23 9t-23 -9l-160 -160v0zM393 375l-160 -160q-9 -10 -9 -23t9 -23l160 -160q10 -9 23 -9t23 9q9 10 9 23t-9 23l-138 137l138 137q9 10 9 23
t-9 23q-10 9 -23 9t-23 -9v0z" />
    <glyph glyph-name="angles-left" unicode="&#xab;" 
d="M41 215q-9 -10 -9 -23v0q0 -13 9 -23l160 -160q10 -9 23 -9t23 9q9 10 9 23t-9 23l-138 137l138 137q9 10 9 23t-9 23q-10 9 -23 9t-23 -9l-160 -160v0zM393 375l-160 -160q-9 -10 -9 -23t9 -23l160 -160q10 -9 23 -9t23 9q9 10 9 23t-9 23l-138 137l138 137q9 10 9 23
t-9 23q-10 9 -23 9t-23 -9v0z" />
    <glyph glyph-name="registered" unicode="&#xf25d;" 
d="M256 -64q70 1 128 34v0q58 34 94 94q34 61 34 128t-34 128q-36 60 -94 94q-58 33 -128 34q-70 -1 -128 -34q-58 -34 -94 -94q-34 -61 -34 -128t34 -128q36 -60 94 -94q58 -33 128 -34v0zM160 296q2 22 24 24h88q34 -1 57 -23q22 -23 23 -57q-2 -44 -36 -67l34 -75
q7 -21 -12 -32q-21 -7 -32 12l-37 82h-61v-72q-2 -22 -24 -24q-22 2 -24 24v96v112v0zM208 208h64q14 0 23 9t9 23t-9 23t-23 9h-64v-64v0z" />
    <glyph glyph-name="registered" unicode="&#xae;" 
d="M256 -64q70 1 128 34v0q58 34 94 94q34 61 34 128t-34 128q-36 60 -94 94q-58 33 -128 34q-70 -1 -128 -34q-58 -34 -94 -94q-34 -61 -34 -128t34 -128q36 -60 94 -94q58 -33 128 -34v0zM160 296q2 22 24 24h88q34 -1 57 -23q22 -23 23 -57q-2 -44 -36 -67l34 -75
q7 -21 -12 -32q-21 -7 -32 12l-37 82h-61v-72q-2 -22 -24 -24q-22 2 -24 24v96v112v0zM208 208h64q14 0 23 9t9 23t-9 23t-23 9h-64v-64v0z" />
    <glyph glyph-name="paragraph" unicode="&#xf1dd;" horiz-adv-x="448" 
d="M192 416h64h160q14 0 23 -9t9 -23t-9 -23t-23 -9h-32v-352q0 -14 -9 -23t-23 -9t-23 9t-9 23v352h-32v-352q0 -14 -9 -23t-23 -9t-23 9t-9 23v96h-32q-68 2 -113 47t-47 113q2 68 47 113t113 47v0z" />
    <glyph glyph-name="paragraph" unicode="&#xb6;" horiz-adv-x="448" 
d="M192 416h64h160q14 0 23 -9t9 -23t-9 -23t-23 -9h-32v-352q0 -14 -9 -23t-23 -9t-23 9t-9 23v352h-32v-352q0 -14 -9 -23t-23 -9t-23 9t-9 23v96h-32q-68 2 -113 47t-47 113q2 68 47 113t113 47v0z" />
    <glyph glyph-name="angles-right" unicode="&#xf101;" 
d="M471 169q9 10 9 23v0q0 13 -9 23l-160 160q-10 9 -23 9t-23 -9q-9 -10 -9 -23t9 -23l138 -137l-138 -137q-9 -10 -9 -23t9 -23q10 -9 23 -9t23 9l160 160v0zM119 9l160 160q9 10 9 23t-9 23l-160 160q-10 9 -23 9t-23 -9q-9 -10 -9 -23t9 -23l138 -137l-138 -137
q-9 -10 -9 -23t9 -23q10 -9 23 -9t23 9v0z" />
    <glyph glyph-name="angles-right" unicode="&#xbb;" 
d="M471 169q9 10 9 23v0q0 13 -9 23l-160 160q-10 9 -23 9t-23 -9q-9 -10 -9 -23t9 -23l138 -137l-138 -137q-9 -10 -9 -23t9 -23q10 -9 23 -9t23 9l160 160v0zM119 9l160 160q9 10 9 23t-9 23l-160 160q-10 9 -23 9t-23 -9q-9 -10 -9 -23t9 -23l138 -137l-138 -137
q-9 -10 -9 -23t9 -23q10 -9 23 -9t23 9v0z" />
    <glyph glyph-name="xmark" unicode="&#x1f5d9;" horiz-adv-x="384" 
d="M343 297q9 10 9 23v0q0 13 -9 23q-10 9 -23 9t-23 -9l-105 -106l-105 106q-10 9 -23 9t-23 -9q-9 -10 -9 -23t9 -23l106 -105l-106 -105q-9 -10 -9 -23t9 -23q10 -9 23 -9t23 9l105 106l105 -106q10 -9 23 -9t23 9q9 10 9 23t-9 23l-106 105l106 105v0z" />
    <glyph glyph-name="xmark" unicode="&#xf00d;" horiz-adv-x="384" 
d="M343 297q9 10 9 23v0q0 13 -9 23q-10 9 -23 9t-23 -9l-105 -106l-105 106q-10 9 -23 9t-23 -9q-9 -10 -9 -23t9 -23l106 -105l-106 -105q-9 -10 -9 -23t9 -23q10 -9 23 -9t23 9l105 106l105 -106q10 -9 23 -9t23 9q9 10 9 23t-9 23l-106 105l106 105v0z" />
    <glyph glyph-name="xmark" unicode="&#x274c;" horiz-adv-x="384" 
d="M343 297q9 10 9 23v0q0 13 -9 23q-10 9 -23 9t-23 -9l-105 -106l-105 106q-10 9 -23 9t-23 -9q-9 -10 -9 -23t9 -23l106 -105l-106 -105q-9 -10 -9 -23t9 -23q10 -9 23 -9t23 9l105 106l105 -106q10 -9 23 -9t23 9q9 10 9 23t-9 23l-106 105l106 105v0z" />
    <glyph glyph-name="xmark" unicode="&#x2716;" horiz-adv-x="384" 
d="M343 297q9 10 9 23v0q0 13 -9 23q-10 9 -23 9t-23 -9l-105 -106l-105 106q-10 9 -23 9t-23 -9q-9 -10 -9 -23t9 -23l106 -105l-106 -105q-9 -10 -9 -23t9 -23q10 -9 23 -9t23 9l105 106l105 -106q10 -9 23 -9t23 9q9 10 9 23t-9 23l-106 105l106 105v0z" />
    <glyph glyph-name="xmark" unicode="&#x2715;" horiz-adv-x="384" 
d="M343 297q9 10 9 23v0q0 13 -9 23q-10 9 -23 9t-23 -9l-105 -106l-105 106q-10 9 -23 9t-23 -9q-9 -10 -9 -23t9 -23l106 -105l-106 -105q-9 -10 -9 -23t9 -23q10 -9 23 -9t23 9l105 106l105 -106q10 -9 23 -9t23 9q9 10 9 23t-9 23l-106 105l106 105v0z" />
    <glyph glyph-name="xmark" unicode="&#xd7;" horiz-adv-x="384" 
d="M343 297q9 10 9 23v0q0 13 -9 23q-10 9 -23 9t-23 -9l-105 -106l-105 106q-10 9 -23 9t-23 -9q-9 -10 -9 -23t9 -23l106 -105l-106 -105q-9 -10 -9 -23t9 -23q10 -9 23 -9t23 9l105 106l105 -106q10 -9 23 -9t23 9q9 10 9 23t-9 23l-106 105l106 105v0z" />
    <glyph glyph-name="divide" unicode="&#xf529;" horiz-adv-x="448" 
d="M272 352q-1 27 -24 42q-24 12 -48 0q-23 -15 -24 -42q1 -27 24 -42q24 -12 48 0q23 15 24 42v0zM272 32q-1 27 -24 42q-24 12 -48 0q-23 -15 -24 -42q1 -27 24 -42q24 -12 48 0q23 15 24 42v0zM400 160q14 0 23 9v0q9 9 9 23t-9 23t-23 9h-352q-14 0 -23 -9t-9 -23t9 -23
t23 -9h352v0z" />
    <glyph glyph-name="divide" unicode="&#x2797;" horiz-adv-x="448" 
d="M272 352q-1 27 -24 42q-24 12 -48 0q-23 -15 -24 -42q1 -27 24 -42q24 -12 48 0q23 15 24 42v0zM272 32q-1 27 -24 42q-24 12 -48 0q-23 -15 -24 -42q1 -27 24 -42q24 -12 48 0q23 15 24 42v0zM400 160q14 0 23 9v0q9 9 9 23t-9 23t-23 9h-352q-14 0 -23 -9t-9 -23t9 -23
t23 -9h352v0z" />
    <glyph glyph-name="divide" unicode="&#xf7;" horiz-adv-x="448" 
d="M272 352q-1 27 -24 42q-24 12 -48 0q-23 -15 -24 -42q1 -27 24 -42q24 -12 48 0q23 15 24 42v0zM272 32q-1 27 -24 42q-24 12 -48 0q-23 -15 -24 -42q1 -27 24 -42q24 -12 48 0q23 15 24 42v0zM400 160q14 0 23 9v0q9 9 9 23t-9 23t-23 9h-352q-14 0 -23 -9t-9 -23t9 -23
t23 -9h352v0z" />
    <glyph glyph-name="minus" unicode="&#xf068;" horiz-adv-x="448" 
d="M432 192q0 -14 -9 -23v0q-9 -9 -23 -9h-352q-14 0 -23 9t-9 23t9 23t23 9h352q14 0 23 -9t9 -23v0z" />
    <glyph glyph-name="minus" unicode="&#x2796;" horiz-adv-x="448" 
d="M432 192q0 -14 -9 -23v0q-9 -9 -23 -9h-352q-14 0 -23 9t-9 23t9 23t23 9h352q14 0 23 -9t9 -23v0z" />
    <glyph glyph-name="minus" unicode="&#x2212;" horiz-adv-x="448" 
d="M432 192q0 -14 -9 -23v0q-9 -9 -23 -9h-352q-14 0 -23 9t-9 23t9 23t23 9h352q14 0 23 -9t9 -23v0z" />
    <glyph glyph-name="minus" unicode="&#x2013;" horiz-adv-x="448" 
d="M432 192q0 -14 -9 -23v0q-9 -9 -23 -9h-352q-14 0 -23 9t-9 23t9 23t23 9h352q14 0 23 -9t9 -23v0z" />
    <glyph glyph-name="quote-left" unicode="&#xf10d;" horiz-adv-x="448" 
d="M0 232q1 51 35 85v0q34 34 85 35h8q14 0 23 -9t9 -23t-9 -23t-23 -9h-8q-24 -1 -40 -16q-15 -16 -16 -40v-8h64q27 -1 45 -19t19 -45v-64q-1 -27 -19 -45t-45 -19h-64q-27 1 -45 19t-19 45v32v32v72v0zM256 232q1 51 35 85v0q34 34 85 35h8q14 0 23 -9t9 -23t-9 -23
t-23 -9h-8q-24 -1 -40 -16q-15 -16 -16 -40v-8h64q27 -1 45 -19t19 -45v-64q-1 -27 -19 -45t-45 -19h-64q-27 1 -45 19t-19 45v32v32v72v0z" />
    <glyph glyph-name="quote-left" unicode="&#x201c;" horiz-adv-x="448" 
d="M0 232q1 51 35 85v0q34 34 85 35h8q14 0 23 -9t9 -23t-9 -23t-23 -9h-8q-24 -1 -40 -16q-15 -16 -16 -40v-8h64q27 -1 45 -19t19 -45v-64q-1 -27 -19 -45t-45 -19h-64q-27 1 -45 19t-19 45v32v32v72v0zM256 232q1 51 35 85v0q34 34 85 35h8q14 0 23 -9t9 -23t-9 -23
t-23 -9h-8q-24 -1 -40 -16q-15 -16 -16 -40v-8h64q27 -1 45 -19t19 -45v-64q-1 -27 -19 -45t-45 -19h-64q-27 1 -45 19t-19 45v32v32v72v0z" />
    <glyph glyph-name="quote-right" unicode="&#xf10e;" horiz-adv-x="448" 
d="M448 152q-1 -51 -35 -85v0q-34 -34 -85 -35h-8q-14 0 -23 9t-9 23t9 23t23 9h8q24 1 40 16q15 16 16 40v8h-64q-27 1 -45 19t-19 45v64q1 27 19 45t45 19h64q27 -1 45 -19t19 -45v-32v-32v-72v0zM192 152q-1 -51 -35 -85v0q-34 -34 -85 -35h-8q-14 0 -23 9t-9 23t9 23
t23 9h8q24 1 40 16q15 16 16 40v8h-64q-27 1 -45 19t-19 45v64q1 27 19 45t45 19h64q27 -1 45 -19t19 -45v-32v-32v-72v0z" />
    <glyph glyph-name="quote-right" unicode="&#x201d;" horiz-adv-x="448" 
d="M448 152q-1 -51 -35 -85v0q-34 -34 -85 -35h-8q-14 0 -23 9t-9 23t9 23t23 9h8q24 1 40 16q15 16 16 40v8h-64q-27 1 -45 19t-19 45v64q1 27 19 45t45 19h64q27 -1 45 -19t19 -45v-32v-32v-72v0zM192 152q-1 -51 -35 -85v0q-34 -34 -85 -35h-8q-14 0 -23 9t-9 23t9 23
t23 9h8q24 1 40 16q15 16 16 40v8h-64q-27 1 -45 19t-19 45v64q1 27 19 45t45 19h64q27 -1 45 -19t19 -45v-32v-32v-72v0z" />
    <glyph glyph-name="angle-left" unicode="&#xf104;" horiz-adv-x="320" 
d="M41 215q-9 -10 -9 -23v0q0 -13 9 -23l160 -160q10 -9 23 -9t23 9q9 10 9 23t-9 23l-138 137l138 137q9 10 9 23t-9 23q-10 9 -23 9t-23 -9l-160 -160v0z" />
    <glyph glyph-name="angle-left" unicode="&#x2039;" horiz-adv-x="320" 
d="M41 215q-9 -10 -9 -23v0q0 -13 9 -23l160 -160q10 -9 23 -9t23 9q9 10 9 23t-9 23l-138 137l138 137q9 10 9 23t-9 23q-10 9 -23 9t-23 -9l-160 -160v0z" />
    <glyph glyph-name="angle-right" unicode="&#xf105;" horiz-adv-x="320" 
d="M279 215q9 -10 9 -23v0q0 -13 -9 -23l-160 -160q-10 -9 -23 -9t-23 9q-9 10 -9 23t9 23l138 137l-138 137q-9 10 -9 23t9 23q10 9 23 9t23 -9l160 -160v0z" />
    <glyph glyph-name="angle-right" unicode="&#x203a;" horiz-adv-x="320" 
d="M279 215q9 -10 9 -23v0q0 -13 -9 -23l-160 -160q-10 -9 -23 -9t-23 9q-9 10 -9 23t9 23l138 137l-138 137q-9 10 -9 23t9 23q10 9 23 9t23 -9l160 -160v0z" />
    <glyph glyph-name="lira-sign" unicode="&#xf195;" horiz-adv-x="320" 
d="M112 288q1 27 19 45v0q18 18 45 19q11 0 21 -3l81 -27q13 -4 24 1q12 6 17 19q3 13 -2 24q-6 12 -19 16l-81 27q-20 7 -41 7q-54 -1 -90 -38q-37 -36 -38 -90v-32h-16q-14 0 -23 -9t-9 -23t9 -23t23 -9h16v-32h-16q-14 0 -23 -9t-9 -23t9 -23t23 -9h14q-3 -16 -12 -30
l-29 -50q-9 -16 -1 -32q10 -15 28 -16h256q14 0 23 9t9 23t-9 23t-23 9h-199v1q18 29 22 63h113q14 0 23 9t9 23t-9 23t-23 9h-112v32h112q14 0 23 9t9 23t-9 23t-23 9h-112v32v0z" />
    <glyph glyph-name="lira-sign" unicode="&#x20a4;" horiz-adv-x="320" 
d="M112 288q1 27 19 45v0q18 18 45 19q11 0 21 -3l81 -27q13 -4 24 1q12 6 17 19q3 13 -2 24q-6 12 -19 16l-81 27q-20 7 -41 7q-54 -1 -90 -38q-37 -36 -38 -90v-32h-16q-14 0 -23 -9t-9 -23t9 -23t23 -9h16v-32h-16q-14 0 -23 -9t-9 -23t9 -23t23 -9h14q-3 -16 -12 -30
l-29 -50q-9 -16 -1 -32q10 -15 28 -16h256q14 0 23 9t9 23t-9 23t-23 9h-199v1q18 29 22 63h113q14 0 23 9t9 23t-9 23t-23 9h-112v32h112q14 0 23 9t9 23t-9 23t-23 9h-112v32v0z" />
    <glyph glyph-name="rupee-sign" unicode="&#xf156;" horiz-adv-x="448" 
d="M0 384q0 14 9 23v0q9 9 23 9h80q61 -2 102 -42q40 -41 42 -102q-1 -45 -24 -80q-23 -34 -62 -52l52 -128q4 -13 -1 -25q-5 -11 -17 -17q-13 -4 -25 1q-11 5 -17 17l-56 140h-42v-128q0 -14 -9 -23t-23 -9t-23 9t-9 23v160v224v0zM64 192h48q34 1 57 23q22 23 23 57
q-1 34 -23 57q-23 22 -57 23h-48v-160v0zM321 176q-1 -9 0 -10q0 -2 4 -5q10 -8 38 -17h1q13 -4 28 -11t28 -17q15 -12 23 -33q8 -20 4 -44q-8 -43 -44 -61q-34 -15 -73 -8v0v0q-15 4 -30 9q-8 3 -15 6q-1 1 -2 1v0q-2 1 -3 1l-4 2q-12 5 -17 17q-5 11 -1 24q5 13 17 18
t25 0q3 -1 8 -3v0l1 -1q7 -2 14 -5q13 -5 19 -6q23 -3 33 3q7 3 9 13q1 9 -1 12q-1 2 -4 6q-10 8 -37 17l-3 1q-26 7 -54 26q-15 11 -23 31t-5 43q8 43 43 59q35 17 74 10q6 -1 17 -4q12 -2 19 -5q12 -4 18 -15q6 -12 3 -25q-5 -13 -16 -19q-11 -5 -24 -2q-5 1 -14 4
q-9 2 -14 3q-22 3 -33 -4q-9 -5 -9 -12v1z" />
    <glyph glyph-name="rupee-sign" unicode="&#x20a8;" horiz-adv-x="448" 
d="M0 384q0 14 9 23v0q9 9 23 9h80q61 -2 102 -42q40 -41 42 -102q-1 -45 -24 -80q-23 -34 -62 -52l52 -128q4 -13 -1 -25q-5 -11 -17 -17q-13 -4 -25 1q-11 5 -17 17l-56 140h-42v-128q0 -14 -9 -23t-23 -9t-23 9t-9 23v160v224v0zM64 192h48q34 1 57 23q22 23 23 57
q-1 34 -23 57q-23 22 -57 23h-48v-160v0zM321 176q-1 -9 0 -10q0 -2 4 -5q10 -8 38 -17h1q13 -4 28 -11t28 -17q15 -12 23 -33q8 -20 4 -44q-8 -43 -44 -61q-34 -15 -73 -8v0v0q-15 4 -30 9q-8 3 -15 6q-1 1 -2 1v0q-2 1 -3 1l-4 2q-12 5 -17 17q-5 11 -1 24q5 13 17 18
t25 0q3 -1 8 -3v0l1 -1q7 -2 14 -5q13 -5 19 -6q23 -3 33 3q7 3 9 13q1 9 -1 12q-1 2 -4 6q-10 8 -37 17l-3 1q-26 7 -54 26q-15 11 -23 31t-5 43q8 43 43 59q35 17 74 10q6 -1 17 -4q12 -2 19 -5q12 -4 18 -15q6 -12 3 -25q-5 -13 -16 -19q-11 -5 -24 -2q-5 1 -14 4
q-9 2 -14 3q-22 3 -33 -4q-9 -5 -9 -12v1z" />
    <glyph glyph-name="won-sign" unicode="&#xf159;" 
d="M62 394q-4 13 -16 19v0q-11 5 -24 1t-19 -16q-5 -11 -1 -24l50 -150h-20q-14 0 -23 -9t-9 -23t9 -23t23 -9h41l57 -170q8 -22 31 -22q23 2 30 24l42 168h46l42 -168q7 -22 30 -24q23 0 31 22l57 170h41q14 0 23 9t9 23t-9 23t-23 9h-20l50 150q4 13 -1 24q-6 12 -19 16
t-24 -1q-12 -6 -16 -19l-57 -170h-64l-42 168q-7 23 -31 24q-24 -1 -31 -24l-42 -168h-64l-57 170v0zM140 160h27l-11 -46l-16 46v0zM249 224l7 28l7 -28h-14v0zM345 160h27l-16 -46l-11 46v0z" />
    <glyph glyph-name="won-sign" unicode="&#x20a9;" 
d="M62 394q-4 13 -16 19v0q-11 5 -24 1t-19 -16q-5 -11 -1 -24l50 -150h-20q-14 0 -23 -9t-9 -23t9 -23t23 -9h41l57 -170q8 -22 31 -22q23 2 30 24l42 168h46l42 -168q7 -22 30 -24q23 0 31 22l57 170h41q14 0 23 9t9 23t-9 23t-23 9h-20l50 150q4 13 -1 24q-6 12 -19 16
t-24 -1q-12 -6 -16 -19l-57 -170h-64l-42 168q-7 23 -31 24q-24 -1 -31 -24l-42 -168h-64l-57 170v0zM140 160h27l-11 -46l-16 46v0zM249 224l7 28l7 -28h-14v0zM345 160h27l-16 -46l-11 46v0z" />
    <glyph glyph-name="shekel-sign" unicode="&#xf20b;" horiz-adv-x="448" 
d="M32 416q-14 0 -23 -9v0q-9 -9 -9 -23v-384q0 -14 9 -23t23 -9t23 9t9 23v352h128q27 -1 45 -19t19 -45v-160q0 -14 9 -23t23 -9t23 9t9 23v160q-1 54 -37 91q-37 36 -91 37h-160v0zM320 -32q54 1 91 37v0q36 37 37 91v288q0 14 -9 23t-23 9t-23 -9t-9 -23v-288
q-1 -27 -19 -45t-45 -19h-128v224q0 14 -9 23t-23 9t-23 -9t-9 -23v-256q0 -14 9 -23t23 -9h160v0z" />
    <glyph glyph-name="shekel-sign" unicode="&#x20aa;" horiz-adv-x="448" 
d="M32 416q-14 0 -23 -9v0q-9 -9 -9 -23v-384q0 -14 9 -23t23 -9t23 9t9 23v352h128q27 -1 45 -19t19 -45v-160q0 -14 9 -23t23 -9t23 9t9 23v160q-1 54 -37 91q-37 36 -91 37h-160v0zM320 -32q54 1 91 37v0q36 37 37 91v288q0 14 -9 23t-23 9t-23 -9t-9 -23v-288
q-1 -27 -19 -45t-45 -19h-128v224q0 14 -9 23t-23 9t-23 -9t-9 -23v-256q0 -14 9 -23t23 -9h160v0z" />
    <glyph glyph-name="euro-sign" unicode="&#xf153;" horiz-adv-x="320" 
d="M48 208v-8v0v0v-16v-8h-16q-14 0 -23 -9t-9 -23t9 -23t23 -9h28q24 -64 78 -103q54 -40 126 -41h24q14 0 23 9t9 23t-9 23t-23 9h-24q-44 1 -79 22q-35 22 -55 58h126q14 0 23 9t9 23t-9 23t-23 9h-144v8v16v8h144q14 0 23 9t9 23t-9 23t-23 9h-126q20 36 55 58
q35 21 79 22h24q14 0 23 9t9 23t-9 23t-23 9h-24q-72 -1 -126 -41q-54 -39 -78 -103h-28q-14 0 -23 -9t-9 -23t9 -23t23 -9h16v0z" />
    <glyph glyph-name="euro-sign" unicode="&#x20ac;" horiz-adv-x="320" 
d="M48 208v-8v0v0v-16v-8h-16q-14 0 -23 -9t-9 -23t9 -23t23 -9h28q24 -64 78 -103q54 -40 126 -41h24q14 0 23 9t9 23t-9 23t-23 9h-24q-44 1 -79 22q-35 22 -55 58h126q14 0 23 9t9 23t-9 23t-23 9h-144v8v16v8h144q14 0 23 9t9 23t-9 23t-23 9h-126q20 36 55 58
q35 21 79 22h24q14 0 23 9t9 23t-9 23t-23 9h-24q-72 -1 -126 -41q-54 -39 -78 -103h-28q-14 0 -23 -9t-9 -23t9 -23t23 -9h16v0z" />
    <glyph glyph-name="hryvnia-sign" unicode="&#xf6f2;" horiz-adv-x="384" 
d="M122 332q25 20 58 20h43q21 -1 35 -14q13 -14 14 -35q0 -18 -11 -31h-229q-14 0 -23 -9t-9 -23t9 -23t23 -9h124l-51 -29q-3 -1 -5 -3h-68q-14 0 -23 -9t-9 -23t9 -23t23 -9h20q-4 -15 -4 -31q1 -48 33 -80t80 -33h43q55 0 98 34l6 5q10 9 12 21q1 13 -7 24q-9 10 -21 12
q-13 1 -24 -7l-6 -5q-25 -20 -58 -20h-43q-21 1 -35 14q-13 14 -14 35q0 18 11 31h229q14 0 23 9t9 23t-9 23t-23 9h-123l50 29q3 1 5 3h68q14 0 23 9t9 23t-9 23t-23 9h-20q4 15 4 31q-1 48 -33 80t-80 33h-43q-55 0 -98 -34l-6 -5q-10 -9 -12 -21q-1 -13 7 -24
q9 -10 21 -12q13 -1 24 7l6 5v0z" />
    <glyph glyph-name="hryvnia-sign" unicode="&#x20b4;" horiz-adv-x="384" 
d="M122 332q25 20 58 20h43q21 -1 35 -14q13 -14 14 -35q0 -18 -11 -31h-229q-14 0 -23 -9t-9 -23t9 -23t23 -9h124l-51 -29q-3 -1 -5 -3h-68q-14 0 -23 -9t-9 -23t9 -23t23 -9h20q-4 -15 -4 -31q1 -48 33 -80t80 -33h43q55 0 98 34l6 5q10 9 12 21q1 13 -7 24q-9 10 -21 12
q-13 1 -24 -7l-6 -5q-25 -20 -58 -20h-43q-21 1 -35 14q-13 14 -14 35q0 18 11 31h229q14 0 23 9t9 23t-9 23t-23 9h-123l50 29q3 1 5 3h68q14 0 23 9t9 23t-9 23t-23 9h-20q4 15 4 31q-1 48 -33 80t-80 33h-43q-55 0 -98 -34l-6 -5q-10 -9 -12 -21q-1 -13 7 -24
q9 -10 21 -12q13 -1 24 7l6 5v0z" />
    <glyph glyph-name="tenge-sign" unicode="&#xf7d7;" horiz-adv-x="384" 
d="M0 384q0 14 9 23v0q9 9 23 9h320q14 0 23 -9t9 -23t-9 -23t-23 -9h-320q-14 0 -23 9t-9 23v0zM0 256q0 14 9 23v0q9 9 23 9h160h160q14 0 23 -9t9 -23t-9 -23t-23 -9h-128v-224q0 -14 -9 -23t-23 -9t-23 9t-9 23v224h-128q-14 0 -23 9t-9 23v0z" />
    <glyph glyph-name="tenge-sign" unicode="&#x20b8;" horiz-adv-x="384" 
d="M0 384q0 14 9 23v0q9 9 23 9h320q14 0 23 -9t9 -23t-9 -23t-23 -9h-320q-14 0 -23 9t-9 23v0zM0 256q0 14 9 23v0q9 9 23 9h160h160q14 0 23 -9t9 -23t-9 -23t-23 -9h-128v-224q0 -14 -9 -23t-23 -9t-23 9t-9 23v224h-128q-14 0 -23 9t-9 23v0z" />
    <glyph glyph-name="ruble-sign" unicode="&#xf158;" horiz-adv-x="384" 
d="M96 416q-14 0 -23 -9v0q-9 -9 -9 -23v-192h-32q-14 0 -23 -9t-9 -23t9 -23t23 -9h32v-32h-32q-14 0 -23 -9t-9 -23t9 -23t23 -9h32v-32q0 -14 9 -23t23 -9t23 9t9 23v32h160q14 0 23 9t9 23t-9 23t-23 9h-160v32h112q61 2 102 42q40 41 42 102q-2 61 -42 102
q-41 40 -102 42h-144v0zM240 192h-112v160h112q34 -1 57 -23q22 -23 23 -57q-1 -34 -23 -57q-23 -22 -57 -23v0z" />
    <glyph glyph-name="ruble-sign" unicode="&#x20bd;" horiz-adv-x="384" 
d="M96 416q-14 0 -23 -9v0q-9 -9 -9 -23v-192h-32q-14 0 -23 -9t-9 -23t9 -23t23 -9h32v-32h-32q-14 0 -23 -9t-9 -23t9 -23t23 -9h32v-32q0 -14 9 -23t23 -9t23 9t9 23v32h160q14 0 23 9t9 23t-9 23t-23 9h-160v32h112q61 2 102 42q40 41 42 102q-2 61 -42 102
q-41 40 -102 42h-144v0zM240 192h-112v160h112q34 -1 57 -23q22 -23 23 -57q-1 -34 -23 -57q-23 -22 -57 -23v0z" />
    <glyph glyph-name="trademark" unicode="&#xf25c;" horiz-adv-x="640" 
d="M346 339q-15 17 -36 11q-21 -8 -22 -30v-256q0 -14 9 -23t23 -9t23 9t9 23v160l86 -115q10 -13 26 -13t26 13l86 115v-160q0 -14 9 -23t23 -9t23 9t9 23v256q-1 22 -22 30q-21 6 -36 -11l-118 -158l-118 158v0zM0 320q0 -14 9 -23v0q9 -9 23 -9h64v-224q0 -14 9 -23
t23 -9t23 9t9 23v224h64q14 0 23 9t9 23t-9 23t-23 9h-192q-14 0 -23 -9t-9 -23v0z" />
    <glyph glyph-name="trademark" unicode="&#x2122;" horiz-adv-x="640" 
d="M346 339q-15 17 -36 11q-21 -8 -22 -30v-256q0 -14 9 -23t23 -9t23 9t9 23v160l86 -115q10 -13 26 -13t26 13l86 115v-160q0 -14 9 -23t23 -9t23 9t9 23v256q-1 22 -22 30q-21 6 -36 -11l-118 -158l-118 158v0zM0 320q0 -14 9 -23v0q9 -9 23 -9h64v-224q0 -14 9 -23
t23 -9t23 9t9 23v224h64q14 0 23 9t9 23t-9 23t-23 9h-192q-14 0 -23 -9t-9 -23v0z" />
    <glyph glyph-name="arrow-left" unicode="&#xf060;" horiz-adv-x="448" 
d="M9 215q-9 -10 -9 -23v0q0 -13 9 -23l160 -160q10 -9 23 -9t23 9q9 10 9 23t-9 23l-106 105h307q14 0 23 9t9 23t-9 23t-23 9h-307l106 105q9 10 9 23t-9 23q-10 9 -23 9t-23 -9l-160 -160v0z" />
    <glyph glyph-name="arrow-left" unicode="&#x2190;" horiz-adv-x="448" 
d="M9 215q-9 -10 -9 -23v0q0 -13 9 -23l160 -160q10 -9 23 -9t23 9q9 10 9 23t-9 23l-106 105h307q14 0 23 9t9 23t-9 23t-23 9h-307l106 105q9 10 9 23t-9 23q-10 9 -23 9t-23 -9l-160 -160v0z" />
    <glyph glyph-name="arrow-up" unicode="&#xf062;" horiz-adv-x="384" 
d="M215 407q-10 9 -23 9v0q-13 0 -23 -9l-160 -160q-9 -10 -9 -23t9 -23q10 -9 23 -9t23 9l105 106v-307q0 -14 9 -23t23 -9t23 9t9 23v307l105 -106q10 -9 23 -9t23 9q9 10 9 23t-9 23l-160 160v0z" />
    <glyph glyph-name="arrow-up" unicode="&#x2191;" horiz-adv-x="384" 
d="M215 407q-10 9 -23 9v0q-13 0 -23 -9l-160 -160q-9 -10 -9 -23t9 -23q10 -9 23 -9t23 9l105 106v-307q0 -14 9 -23t23 -9t23 9t9 23v307l105 -106q10 -9 23 -9t23 9q9 10 9 23t-9 23l-160 160v0z" />
    <glyph glyph-name="arrow-right" unicode="&#xf061;" horiz-adv-x="448" 
d="M439 169q9 10 9 23v0q0 13 -9 23l-160 160q-10 9 -23 9t-23 -9q-9 -10 -9 -23t9 -23l106 -105h-307q-14 0 -23 -9t-9 -23t9 -23t23 -9h307l-106 -105q-9 -10 -9 -23t9 -23q10 -9 23 -9t23 9l160 160v0z" />
    <glyph glyph-name="arrow-right" unicode="&#x2192;" horiz-adv-x="448" 
d="M439 169q9 10 9 23v0q0 13 -9 23l-160 160q-10 9 -23 9t-23 -9q-9 -10 -9 -23t9 -23l106 -105h-307q-14 0 -23 -9t-9 -23t9 -23t23 -9h307l-106 -105q-9 -10 -9 -23t9 -23q10 -9 23 -9t23 9l160 160v0z" />
    <glyph glyph-name="arrow-down" unicode="&#xf063;" horiz-adv-x="384" 
d="M169 -23q10 -9 23 -9v0q13 0 23 9l160 160q9 10 9 23t-9 23q-10 9 -23 9t-23 -9l-105 -106v307q0 14 -9 23t-23 9t-23 -9t-9 -23v-307l-105 106q-10 9 -23 9t-23 -9q-9 -10 -9 -23t9 -23l160 -160v0z" />
    <glyph glyph-name="arrow-down" unicode="&#x2193;" horiz-adv-x="384" 
d="M169 -23q10 -9 23 -9v0q13 0 23 9l160 160q9 10 9 23t-9 23q-10 9 -23 9t-23 -9l-105 -106v307q0 14 -9 23t-23 9t-23 -9t-9 -23v-307l-105 106q-10 9 -23 9t-23 -9q-9 -10 -9 -23t9 -23l160 -160v0z" />
    <glyph glyph-name="left-right" unicode="&#xf337;" 
d="M504 174q8 8 8 18t-8 18l-112 104q-11 10 -26 4q-13 -7 -14 -22v-56h-192v56q-1 15 -14 22q-15 6 -26 -4l-112 -104q-8 -8 -8 -18t8 -18l112 -104q11 -10 26 -4q13 7 14 22v56h192v-56q1 -15 14 -22q15 -6 26 4l112 104v0z" />
    <glyph glyph-name="left-right" unicode="&#x2194;" 
d="M504 174q8 8 8 18t-8 18l-112 104q-11 10 -26 4q-13 -7 -14 -22v-56h-192v56q-1 15 -14 22q-15 6 -26 -4l-112 -104q-8 -8 -8 -18t8 -18l112 -104q11 -10 26 -4q13 7 14 22v56h192v-56q1 -15 14 -22q15 -6 26 4l112 104v0z" />
    <glyph glyph-name="up-down" unicode="&#xf338;" horiz-adv-x="256" 
d="M146 440q-8 8 -18 8t-18 -8l-104 -112q-10 -11 -4 -26q7 -13 22 -14h56v-192h-56q-15 -1 -22 -14q-6 -15 4 -26l104 -112q8 -8 18 -8t18 8l104 112q10 11 4 26q-7 13 -22 14h-56v192h56q15 1 22 14q6 15 -4 26l-104 112v0z" />
    <glyph glyph-name="up-down" unicode="&#x2b0d;" horiz-adv-x="256" 
d="M146 440q-8 8 -18 8t-18 -8l-104 -112q-10 -11 -4 -26q7 -13 22 -14h56v-192h-56q-15 -1 -22 -14q-6 -15 4 -26l104 -112q8 -8 18 -8t18 8l104 112q10 11 4 26q-7 13 -22 14h-56v192h56q15 1 22 14q6 15 -4 26l-104 112v0z" />
    <glyph glyph-name="up-down" unicode="&#x2195;" horiz-adv-x="256" 
d="M146 440q-8 8 -18 8t-18 -8l-104 -112q-10 -11 -4 -26q7 -13 22 -14h56v-192h-56q-15 -1 -22 -14q-6 -15 4 -26l104 -112q8 -8 18 -8t18 8l104 112q10 11 4 26q-7 13 -22 14h-56v192h56q15 1 22 14q6 15 -4 26l-104 112v0z" />
    <glyph glyph-name="square-up-right" unicode="&#xf360;" horiz-adv-x="448" 
d="M384 416q27 -1 45 -19v0q18 -18 19 -45v-320q-1 -27 -19 -45t-45 -19h-320q-27 1 -45 19t-19 45v320q1 27 19 45t45 19h320v0zM320 135v137q-1 15 -16 16h-137q-21 -2 -23 -23q0 -9 7 -16l33 -33l-66 -66q-6 -6 -6 -14t6 -14l36 -36q6 -6 14 -6t14 6l66 66l33 -33
q7 -7 16 -7q21 2 23 23v0z" />
    <glyph glyph-name="square-up-right" unicode="&#x2197;" horiz-adv-x="448" 
d="M384 416q27 -1 45 -19v0q18 -18 19 -45v-320q-1 -27 -19 -45t-45 -19h-320q-27 1 -45 19t-19 45v320q1 27 19 45t45 19h320v0zM320 135v137q-1 15 -16 16h-137q-21 -2 -23 -23q0 -9 7 -16l33 -33l-66 -66q-6 -6 -6 -14t6 -14l36 -36q6 -6 14 -6t14 6l66 66l33 -33
q7 -7 16 -7q21 2 23 23v0z" />
    <glyph glyph-name="arrow-rotate-left" unicode="&#xf0e2;" 
d="M126 288h50q14 0 23 -9t9 -23t-9 -23t-23 -9h-128q-14 0 -23 9t-9 23v128q0 14 9 23t23 9t23 -9t9 -23v-51l18 17q44 44 101 59q57 14 114 0q57 -15 101 -59t59 -101q14 -57 0 -114q-15 -57 -59 -101t-101 -59q-57 -14 -114 0q-57 15 -101 59q-10 9 -10 22t10 23
q9 9 22 9t23 -9q49 -47 113 -47t113 47q47 49 47 113t-47 113q-49 47 -113 47t-113 -47l-17 -17v0z" />
    <glyph glyph-name="arrow-rotate-left" unicode="&#x21ba;" 
d="M126 288h50q14 0 23 -9t9 -23t-9 -23t-23 -9h-128q-14 0 -23 9t-9 23v128q0 14 9 23t23 9t23 -9t9 -23v-51l18 17q44 44 101 59q57 14 114 0q57 -15 101 -59t59 -101q14 -57 0 -114q-15 -57 -59 -101t-101 -59q-57 -14 -114 0q-57 15 -101 59q-10 9 -10 22t10 23
q9 9 22 9t23 -9q49 -47 113 -47t113 47q47 49 47 113t-47 113q-49 47 -113 47t-113 -47l-17 -17v0z" />
    <glyph glyph-name="arrow-rotate-right" unicode="&#xf01e;" 
d="M386 288h-50q-14 0 -23 -9t-9 -23t9 -23t23 -9h128q14 0 23 9t9 23v128q0 14 -9 23t-23 9t-23 -9t-9 -23v-51l-18 17q-44 44 -101 59q-57 14 -114 0q-57 -15 -101 -59t-59 -101q-14 -57 0 -114q15 -57 59 -101t101 -59q57 -14 114 0q57 15 101 59q10 9 10 22t-10 23
q-9 9 -22 9t-23 -9q-49 -47 -113 -47t-113 47q-47 49 -47 113t47 113q49 47 113 47t113 -47l17 -17v0z" />
    <glyph glyph-name="arrow-rotate-right" unicode="&#x21bb;" 
d="M386 288h-50q-14 0 -23 -9t-9 -23t9 -23t23 -9h128q14 0 23 9t9 23v128q0 14 -9 23t-23 9t-23 -9t-9 -23v-51l-18 17q-44 44 -101 59q-57 14 -114 0q-57 -15 -101 -59t-59 -101q-14 -57 0 -114q15 -57 59 -101t101 -59q57 -14 114 0q57 15 101 59q10 9 10 22t-10 23
q-9 9 -22 9t-23 -9q-49 -47 -113 -47t-113 47q-47 49 -47 113t47 113q49 47 113 47t113 -47l17 -17v0z" />
    <glyph glyph-name="arrow-right-arrow-left" unicode="&#xf0ec;" horiz-adv-x="448" 
d="M439 297q9 10 9 23v0q0 13 -9 23l-96 96q-10 9 -23 9t-23 -9q-9 -10 -9 -23t9 -23l42 -41h-307q-14 0 -23 -9t-9 -23t9 -23t23 -9h307l-42 -41q-9 -10 -9 -23t9 -23q10 -9 23 -9t23 9l96 96v0zM105 -55q10 -9 23 -9v0q13 0 23 9q9 10 9 23t-9 23l-42 41h307q14 0 23 9
t9 23t-9 23t-23 9h-307l42 41q9 10 9 23t-9 23q-10 9 -23 9t-23 -9l-96 -96q-9 -10 -9 -23t9 -23l96 -96v0z" />
    <glyph glyph-name="arrow-right-arrow-left" unicode="&#x21c4;" horiz-adv-x="448" 
d="M439 297q9 10 9 23v0q0 13 -9 23l-96 96q-10 9 -23 9t-23 -9q-9 -10 -9 -23t9 -23l42 -41h-307q-14 0 -23 -9t-9 -23t9 -23t23 -9h307l-42 -41q-9 -10 -9 -23t9 -23q10 -9 23 -9t23 9l96 96v0zM105 -55q10 -9 23 -9v0q13 0 23 9q9 10 9 23t-9 23l-42 41h307q14 0 23 9
t9 23t-9 23t-23 9h-307l42 41q9 10 9 23t-9 23q-10 9 -23 9t-23 -9l-96 -96q-9 -10 -9 -23t9 -23l96 -96v0z" />
    <glyph glyph-name="infinity" unicode="&#xf534;" horiz-adv-x="640" 
d="M0 207q2 62 43 102v0q40 41 102 43q60 -1 103 -43l72 -72l72 72q43 42 103 43q62 -2 102 -43q41 -40 43 -102v-30q-2 -62 -43 -102q-40 -41 -102 -43q-60 1 -103 42l-72 73l-72 -73q-43 -41 -103 -42q-62 2 -102 43q-41 40 -43 102v30v0zM275 192l-72 72q-24 23 -58 24
q-34 -1 -57 -24t-24 -57v-30q1 -34 24 -57t57 -24q34 1 58 24l72 72v0zM365 192l72 -72q24 -24 58 -24q34 1 57 24t24 57v30q-1 34 -24 57t-57 24q-34 0 -58 -24l-72 -72v0z" />
    <glyph glyph-name="infinity" unicode="&#x267e;" horiz-adv-x="640" 
d="M0 207q2 62 43 102v0q40 41 102 43q60 -1 103 -43l72 -72l72 72q43 42 103 43q62 -2 102 -43q41 -40 43 -102v-30q-2 -62 -43 -102q-40 -41 -102 -43q-60 1 -103 42l-72 73l-72 -73q-43 -41 -103 -42q-62 2 -102 43q-41 40 -43 102v30v0zM275 192l-72 72q-24 23 -58 24
q-34 -1 -57 -24t-24 -57v-30q1 -34 24 -57t57 -24q34 1 58 24l72 72v0zM365 192l72 -72q24 -24 58 -24q34 1 57 24t24 57v30q-1 34 -24 57t-57 24q-34 0 -58 -24l-72 -72v0z" />
    <glyph glyph-name="infinity" unicode="&#x221e;" horiz-adv-x="640" 
d="M0 207q2 62 43 102v0q40 41 102 43q60 -1 103 -43l72 -72l72 72q43 42 103 43q62 -2 102 -43q41 -40 43 -102v-30q-2 -62 -43 -102q-40 -41 -102 -43q-60 1 -103 42l-72 73l-72 -73q-43 -41 -103 -42q-62 2 -102 43q-41 40 -43 102v30v0zM275 192l-72 72q-24 23 -58 24
q-34 -1 -57 -24t-24 -57v-30q1 -34 24 -57t57 -24q34 1 58 24l72 72v0zM365 192l72 -72q24 -24 58 -24q34 1 57 24t24 57v30q-1 34 -24 57t-57 24q-34 0 -58 -24l-72 -72v0z" />
    <glyph glyph-name="angle-up" unicode="&#xf106;" horiz-adv-x="448" 
d="M201 311q10 9 23 9v0q13 0 23 -9l160 -160q9 -10 9 -23t-9 -23q-10 -9 -23 -9t-23 9l-137 138l-137 -138q-10 -9 -23 -9t-23 9q-9 10 -9 23t9 23l160 160v0z" />
    <glyph glyph-name="angle-up" unicode="&#x2303;" horiz-adv-x="448" 
d="M201 311q10 9 23 9v0q13 0 23 -9l160 -160q9 -10 9 -23t-9 -23q-10 -9 -23 -9t-23 9l-137 138l-137 -138q-10 -9 -23 -9t-23 9q-9 10 -9 23t9 23l160 160v0z" />
    <glyph glyph-name="angle-down" unicode="&#xf107;" horiz-adv-x="448" 
d="M201 105q10 -9 23 -9v0q13 0 23 9l160 160q9 10 9 23t-9 23q-10 9 -23 9t-23 -9l-137 -138l-137 138q-10 9 -23 9t-23 -9q-9 -10 -9 -23t9 -23l160 -160v0z" />
    <glyph glyph-name="angle-down" unicode="&#x2304;" horiz-adv-x="448" 
d="M201 105q10 -9 23 -9v0q13 0 23 9l160 160q9 10 9 23t-9 23q-10 9 -23 9t-23 -9l-137 -138l-137 138q-10 9 -23 9t-23 -9q-9 -10 -9 -23t9 -23l160 -160v0z" />
    <glyph glyph-name="hourglass-end" unicode="&#xf253;" horiz-adv-x="384" 
d="M32 448q-14 0 -23 -9v0q-9 -9 -9 -23t9 -23t23 -9v-11q1 -66 47 -113l68 -68l-68 -68q-46 -47 -47 -113v-11q-14 0 -23 -9t-9 -23t9 -23t23 -9h32h256h32q14 0 23 9t9 23t-9 23t-23 9v11q-1 66 -47 113l-68 68l68 68q46 47 47 113v11q14 0 23 9t9 23t-9 23t-23 9h-32
h-256h-32v0zM96 373v11h192v-11q-1 -40 -28 -68l-68 -68l-68 68q-27 28 -28 68v0z" />
    <glyph glyph-name="hourglass-end" unicode="&#x231b;" horiz-adv-x="384" 
d="M32 448q-14 0 -23 -9v0q-9 -9 -9 -23t9 -23t23 -9v-11q1 -66 47 -113l68 -68l-68 -68q-46 -47 -47 -113v-11q-14 0 -23 -9t-9 -23t9 -23t23 -9h32h256h32q14 0 23 9t9 23t-9 23t-23 9v11q-1 66 -47 113l-68 68l68 68q46 47 47 113v11q14 0 23 9t9 23t-9 23t-23 9h-32
h-256h-32v0zM96 373v11h192v-11q-1 -40 -28 -68l-68 -68l-68 68q-27 28 -28 68v0z" />
    <glyph glyph-name="keyboard" unicode="&#xf11c;" horiz-adv-x="576" 
d="M64 384q-27 -1 -45 -19v0q-18 -18 -19 -45v-256q1 -27 19 -45t45 -19h448q27 1 45 19t19 45v256q-1 27 -19 45t-45 19h-448v0zM80 320h32q15 -1 16 -16v-32q-1 -15 -16 -16h-32q-15 1 -16 16v32q1 15 16 16v0zM64 208q1 15 16 16h32q15 -1 16 -16v-32q-1 -15 -16 -16h-32
q-15 1 -16 16v32v0zM80 128h32q15 -1 16 -16v-32q-1 -15 -16 -16h-32q-15 1 -16 16v32q1 15 16 16v0zM160 304q1 15 16 16h32q15 -1 16 -16v-32q-1 -15 -16 -16h-32q-15 1 -16 16v32v0zM176 224h32q15 -1 16 -16v-32q-1 -15 -16 -16h-32q-15 1 -16 16v32q1 15 16 16v0z
M160 112q1 15 16 16h224q15 -1 16 -16v-32q-1 -15 -16 -16h-224q-15 1 -16 16v32v0zM272 320h32q15 -1 16 -16v-32q-1 -15 -16 -16h-32q-15 1 -16 16v32q1 15 16 16v0zM256 208q1 15 16 16h32q15 -1 16 -16v-32q-1 -15 -16 -16h-32q-15 1 -16 16v32v0zM368 320h32
q15 -1 16 -16v-32q-1 -15 -16 -16h-32q-15 1 -16 16v32q1 15 16 16v0zM352 208q1 15 16 16h32q15 -1 16 -16v-32q-1 -15 -16 -16h-32q-15 1 -16 16v32v0zM464 320h32q15 -1 16 -16v-32q-1 -15 -16 -16h-32q-15 1 -16 16v32q1 15 16 16v0zM448 208q1 15 16 16h32
q15 -1 16 -16v-32q-1 -15 -16 -16h-32q-15 1 -16 16v32v0zM464 128h32q15 -1 16 -16v-32q-1 -15 -16 -16h-32q-15 1 -16 16v32q1 15 16 16v0z" />
    <glyph glyph-name="keyboard" unicode="&#x2328;" horiz-adv-x="576" 
d="M64 384q-27 -1 -45 -19v0q-18 -18 -19 -45v-256q1 -27 19 -45t45 -19h448q27 1 45 19t19 45v256q-1 27 -19 45t-45 19h-448v0zM80 320h32q15 -1 16 -16v-32q-1 -15 -16 -16h-32q-15 1 -16 16v32q1 15 16 16v0zM64 208q1 15 16 16h32q15 -1 16 -16v-32q-1 -15 -16 -16h-32
q-15 1 -16 16v32v0zM80 128h32q15 -1 16 -16v-32q-1 -15 -16 -16h-32q-15 1 -16 16v32q1 15 16 16v0zM160 304q1 15 16 16h32q15 -1 16 -16v-32q-1 -15 -16 -16h-32q-15 1 -16 16v32v0zM176 224h32q15 -1 16 -16v-32q-1 -15 -16 -16h-32q-15 1 -16 16v32q1 15 16 16v0z
M160 112q1 15 16 16h224q15 -1 16 -16v-32q-1 -15 -16 -16h-224q-15 1 -16 16v32v0zM272 320h32q15 -1 16 -16v-32q-1 -15 -16 -16h-32q-15 1 -16 16v32q1 15 16 16v0zM256 208q1 15 16 16h32q15 -1 16 -16v-32q-1 -15 -16 -16h-32q-15 1 -16 16v32v0zM368 320h32
q15 -1 16 -16v-32q-1 -15 -16 -16h-32q-15 1 -16 16v32q1 15 16 16v0zM352 208q1 15 16 16h32q15 -1 16 -16v-32q-1 -15 -16 -16h-32q-15 1 -16 16v32v0zM464 320h32q15 -1 16 -16v-32q-1 -15 -16 -16h-32q-15 1 -16 16v32q1 15 16 16v0zM448 208q1 15 16 16h32
q15 -1 16 -16v-32q-1 -15 -16 -16h-32q-15 1 -16 16v32v0zM464 128h32q15 -1 16 -16v-32q-1 -15 -16 -16h-32q-15 1 -16 16v32q1 15 16 16v0z" />
    <glyph glyph-name="chevron-left" unicode="&#xf053;" horiz-adv-x="320" 
d="M9 215q-9 -10 -9 -23v0q0 -13 9 -23l192 -192q10 -9 23 -9t23 9q9 10 9 23t-9 23l-170 169l170 169q9 10 9 23t-9 23q-10 9 -23 9t-23 -9l-192 -192v0z" />
    <glyph glyph-name="chevron-left" unicode="&#x2329;" horiz-adv-x="320" 
d="M9 215q-9 -10 -9 -23v0q0 -13 9 -23l192 -192q10 -9 23 -9t23 9q9 10 9 23t-9 23l-170 169l170 169q9 10 9 23t-9 23q-10 9 -23 9t-23 -9l-192 -192v0z" />
    <glyph glyph-name="chevron-right" unicode="&#xf054;" horiz-adv-x="320" 
d="M311 215q9 -10 9 -23v0q0 -13 -9 -23l-192 -192q-10 -9 -23 -9t-23 9q-9 10 -9 23t9 23l170 169l-170 169q-9 10 -9 23t9 23q10 9 23 9t23 -9l192 -192v0z" />
    <glyph glyph-name="chevron-right" unicode="&#x232a;" horiz-adv-x="320" 
d="M311 215q9 -10 9 -23v0q0 -13 -9 -23l-192 -192q-10 -9 -23 -9t-23 9q-9 10 -9 23t9 23l170 169l-170 169q-9 10 -9 23t9 23q10 9 23 9t23 -9l192 -192v0z" />
    <glyph glyph-name="delete-left" unicode="&#xf55a;" horiz-adv-x="576" 
d="M576 320q-1 27 -19 45v0q-18 18 -45 19h-307q-26 0 -45 -19l-151 -150q-9 -10 -9 -23t9 -23l151 -150q19 -19 45 -19h307q27 1 45 19t19 45v256v0zM271 273q17 14 34 0l47 -47l47 47q17 14 34 0q14 -17 0 -34l-47 -47l47 -47q14 -17 0 -34q-17 -14 -34 0l-47 47l-47 -47
q-17 -14 -34 0q-14 17 0 34l47 47l-47 47q-14 17 0 34v0z" />
    <glyph glyph-name="delete-left" unicode="&#x232b;" horiz-adv-x="576" 
d="M576 320q-1 27 -19 45v0q-18 18 -45 19h-307q-26 0 -45 -19l-151 -150q-9 -10 -9 -23t9 -23l151 -150q19 -19 45 -19h307q27 1 45 19t19 45v256v0zM271 273q17 14 34 0l47 -47l47 47q17 14 34 0q14 -17 0 -34l-47 -47l47 -47q14 -17 0 -34q-17 -14 -34 0l-47 47l-47 -47
q-17 -14 -34 0q-14 17 0 34l47 47l-47 47q-14 17 0 34v0z" />
    <glyph glyph-name="print" unicode="&#x1f5b6;" 
d="M128 448q-27 -1 -45 -19v0q-18 -18 -19 -45v-96h64v96h227l29 -29v-67h64v67q0 26 -19 45l-29 29q-19 19 -45 19h-227v0zM384 96v-32v-64h-256v64v16v16h256v0zM448 64h32q14 0 23 9t9 23v96q-1 27 -19 45t-45 19h-384q-27 -1 -45 -19t-19 -45v-96q0 -14 9 -23t23 -9h32
v-64q1 -27 19 -45t45 -19h256q27 1 45 19t19 45v64v0zM432 200q22 -2 24 -24q-2 -22 -24 -24q-22 2 -24 24q2 22 24 24v0z" />
    <glyph glyph-name="print" unicode="&#x1f5a8;" 
d="M128 448q-27 -1 -45 -19v0q-18 -18 -19 -45v-96h64v96h227l29 -29v-67h64v67q0 26 -19 45l-29 29q-19 19 -45 19h-227v0zM384 96v-32v-64h-256v64v16v16h256v0zM448 64h32q14 0 23 9t9 23v96q-1 27 -19 45t-45 19h-384q-27 -1 -45 -19t-19 -45v-96q0 -14 9 -23t23 -9h32
v-64q1 -27 19 -45t45 -19h256q27 1 45 19t19 45v64v0zM432 200q22 -2 24 -24q-2 -22 -24 -24q-22 2 -24 24q2 22 24 24v0z" />
    <glyph glyph-name="print" unicode="&#xf02f;" 
d="M128 448q-27 -1 -45 -19v0q-18 -18 -19 -45v-96h64v96h227l29 -29v-67h64v67q0 26 -19 45l-29 29q-19 19 -45 19h-227v0zM384 96v-32v-64h-256v64v16v16h256v0zM448 64h32q14 0 23 9t9 23v96q-1 27 -19 45t-45 19h-384q-27 -1 -45 -19t-19 -45v-96q0 -14 9 -23t23 -9h32
v-64q1 -27 19 -45t45 -19h256q27 1 45 19t19 45v64v0zM432 200q22 -2 24 -24q-2 -22 -24 -24q-22 2 -24 24q2 22 24 24v0z" />
    <glyph glyph-name="print" unicode="&#x2399;" 
d="M128 448q-27 -1 -45 -19v0q-18 -18 -19 -45v-96h64v96h227l29 -29v-67h64v67q0 26 -19 45l-29 29q-19 19 -45 19h-227v0zM384 96v-32v-64h-256v64v16v16h256v0zM448 64h32q14 0 23 9t9 23v96q-1 27 -19 45t-45 19h-384q-27 -1 -45 -19t-19 -45v-96q0 -14 9 -23t23 -9h32
v-64q1 -27 19 -45t45 -19h256q27 1 45 19t19 45v64v0zM432 200q22 -2 24 -24q-2 -22 -24 -24q-22 2 -24 24q2 22 24 24v0z" />
    <glyph glyph-name="eject" unicode="&#xf052;" horiz-adv-x="448" 
d="M224 416q21 0 35 -16l176 -192q20 -23 9 -51q-13 -28 -44 -29h-352q-30 1 -44 29q-11 28 9 52l176 192q14 15 35 15v0zM0 16q1 20 14 34v0q14 13 34 14h352q20 -1 34 -14q13 -14 14 -34q-1 -20 -14 -34q-14 -13 -34 -14h-352q-20 1 -34 14q-13 14 -14 34v0z" />
    <glyph glyph-name="eject" unicode="&#x23cf;" horiz-adv-x="448" 
d="M224 416q21 0 35 -16l176 -192q20 -23 9 -51q-13 -28 -44 -29h-352q-30 1 -44 29q-11 28 9 52l176 192q14 15 35 15v0zM0 16q1 20 14 34v0q14 13 34 14h352q20 -1 34 -14q13 -14 14 -34q-1 -20 -14 -34q-14 -13 -34 -14h-352q-20 1 -34 14q-13 14 -14 34v0z" />
    <glyph glyph-name="forward" unicode="&#xf04e;" 
d="M53 7q-16 -12 -35 -4q-17 9 -18 29v320q1 20 18 29q19 8 35 -4l171 -143v-42v-42l-171 -143v0zM256 96v96v128v32q1 20 18 29q19 8 35 -4l192 -160q11 -10 11 -25t-11 -25l-192 -160q-16 -12 -35 -4q-17 9 -18 29v64v0z" />
    <glyph glyph-name="forward" unicode="&#x23e9;" 
d="M53 7q-16 -12 -35 -4q-17 9 -18 29v320q1 20 18 29q19 8 35 -4l171 -143v-42v-42l-171 -143v0zM256 96v96v128v32q1 20 18 29q19 8 35 -4l192 -160q11 -10 11 -25t-11 -25l-192 -160q-16 -12 -35 -4q-17 9 -18 29v64v0z" />
    <glyph glyph-name="backward" unicode="&#xf04a;" 
d="M460 7q15 -12 34 -4q17 9 18 29v320q-1 20 -18 29q-19 8 -34 -4l-172 -143v-42v-42l172 -143v0zM256 96v96v128v32q-1 20 -18 29q-19 8 -34 -4l-192 -160q-12 -10 -12 -25t12 -25l192 -160q15 -12 34 -4q17 9 18 29v64v0z" />
    <glyph glyph-name="backward" unicode="&#x23ea;" 
d="M460 7q15 -12 34 -4q17 9 18 29v320q-1 20 -18 29q-19 8 -34 -4l-172 -143v-42v-42l172 -143v0zM256 96v96v128v32q-1 20 -18 29q-19 8 -34 -4l-192 -160q-12 -10 -12 -25t12 -25l192 -160q15 -12 34 -4q17 9 18 29v64v0z" />
    <glyph glyph-name="forward-fast" unicode="&#xf050;" 
d="M18 3q19 -8 35 4l171 143v-118q1 -20 18 -29q19 -8 35 4l171 143v-118q0 -14 9 -23t23 -9t23 9t9 23v320q0 14 -9 23t-23 9t-23 -9t-9 -23v-118l-171 143q-16 12 -35 4q-17 -9 -18 -29v-118l-171 143q-16 12 -35 4q-17 -9 -18 -29v-320q1 -20 18 -29v0z" />
    <glyph glyph-name="forward-fast" unicode="&#x23ed;" 
d="M18 3q19 -8 35 4l171 143v-118q1 -20 18 -29q19 -8 35 4l171 143v-118q0 -14 9 -23t23 -9t23 9t9 23v320q0 14 -9 23t-23 9t-23 -9t-9 -23v-118l-171 143q-16 12 -35 4q-17 -9 -18 -29v-118l-171 143q-16 12 -35 4q-17 -9 -18 -29v-320q1 -20 18 -29v0z" />
    <glyph glyph-name="backward-fast" unicode="&#xf049;" 
d="M494 3q-19 -8 -34 4l-172 143v-118q-1 -20 -18 -29q-19 -8 -34 4l-172 143v-118q0 -14 -9 -23t-23 -9t-23 9t-9 23v320q0 14 9 23t23 9t23 -9t9 -23v-118l172 143q15 12 34 4q17 -9 18 -29v-118l172 143q15 12 34 4q17 -9 18 -29v-320q-1 -20 -18 -29v0z" />
    <glyph glyph-name="backward-fast" unicode="&#x23ee;" 
d="M494 3q-19 -8 -34 4l-172 143v-118q-1 -20 -18 -29q-19 -8 -34 4l-172 143v-118q0 -14 -9 -23t-23 -9t-23 9t-9 23v320q0 14 9 23t23 9t23 -9t9 -23v-118l172 143q15 12 34 4q17 -9 18 -29v-118l172 143q15 12 34 4q17 -9 18 -29v-320q-1 -20 -18 -29v0z" />
    <glyph glyph-name="stopwatch" unicode="&#xf2f2;" horiz-adv-x="448" 
d="M176 448q-14 0 -23 -9v0q-9 -9 -9 -23t9 -23t23 -9h16v-34q-76 -14 -125 -70t-51 -136q2 -88 61 -147t147 -61q88 2 147 61t61 147q-1 64 -33 113l24 24q9 10 9 23t-9 23q-10 9 -23 9t-23 -9l-21 -22q-43 35 -100 45v34h16q14 0 23 9t9 23t-9 23t-23 9h-48h-48v0z
M248 256v-128q-2 -22 -24 -24q-22 2 -24 24v128q2 22 24 24q22 -2 24 -24v0z" />
    <glyph glyph-name="stopwatch" unicode="&#x23f1;" horiz-adv-x="448" 
d="M176 448q-14 0 -23 -9v0q-9 -9 -9 -23t9 -23t23 -9h16v-34q-76 -14 -125 -70t-51 -136q2 -88 61 -147t147 -61q88 2 147 61t61 147q-1 64 -33 113l24 24q9 10 9 23t-9 23q-10 9 -23 9t-23 -9l-21 -22q-43 35 -100 45v34h16q14 0 23 9t9 23t-9 23t-23 9h-48h-48v0z
M248 256v-128q-2 -22 -24 -24q-22 2 -24 24v128q2 22 24 24q22 -2 24 -24v0z" />
    <glyph glyph-name="hourglass" unicode="&#xf254;" horiz-adv-x="384" 
d="M0 416q0 14 9 23v0q9 9 23 9h32h256h32q14 0 23 -9t9 -23t-9 -23t-23 -9v-11q-1 -66 -47 -113l-68 -68l68 -68q46 -47 47 -113v-11q14 0 23 -9t9 -23t-9 -23t-23 -9h-32h-256h-32q-14 0 -23 9t-9 23t9 23t23 9v11q1 66 47 113l68 68l-68 68q-46 47 -47 113v11
q-14 0 -23 9t-9 23v0zM96 384v-11q1 -40 28 -68l68 -68l68 68q27 29 28 68v11h-192v0zM96 0h192v11q-1 40 -28 68l-68 68l-68 -68q-27 -29 -28 -68v-11v0z" />
    <glyph glyph-name="hourglass" unicode="&#xf250;" horiz-adv-x="384" 
d="M0 416q0 14 9 23v0q9 9 23 9h32h256h32q14 0 23 -9t9 -23t-9 -23t-23 -9v-11q-1 -66 -47 -113l-68 -68l68 -68q46 -47 47 -113v-11q14 0 23 -9t9 -23t-9 -23t-23 -9h-32h-256h-32q-14 0 -23 9t-9 23t9 23t23 9v11q1 66 47 113l68 68l-68 68q-46 47 -47 113v11
q-14 0 -23 9t-9 23v0zM96 384v-11q1 -40 28 -68l68 -68l68 68q27 29 28 68v11h-192v0zM96 0h192v11q-1 40 -28 68l-68 68l-68 -68q-27 -29 -28 -68v-11v0z" />
    <glyph glyph-name="hourglass" unicode="&#x23f3;" horiz-adv-x="384" 
d="M0 416q0 14 9 23v0q9 9 23 9h32h256h32q14 0 23 -9t9 -23t-9 -23t-23 -9v-11q-1 -66 -47 -113l-68 -68l68 -68q46 -47 47 -113v-11q14 0 23 -9t9 -23t-9 -23t-23 -9h-32h-256h-32q-14 0 -23 9t-9 23t9 23t23 9v11q1 66 47 113l68 68l-68 68q-46 47 -47 113v11
q-14 0 -23 9t-9 23v0zM96 384v-11q1 -40 28 -68l68 -68l68 68q27 29 28 68v11h-192v0zM96 0h192v11q-1 40 -28 68l-68 68l-68 -68q-27 -29 -28 -68v-11v0z" />
    <glyph glyph-name="pause" unicode="&#xf04c;" horiz-adv-x="320" 
d="M48 384q-20 -1 -34 -14v0q-13 -14 -14 -34v-288q1 -20 14 -34q14 -13 34 -14h32q20 1 34 14q13 14 14 34v288q-1 20 -14 34q-14 13 -34 14h-32v0zM240 384q-20 -1 -34 -14v0q-13 -14 -14 -34v-288q1 -20 14 -34q14 -13 34 -14h32q20 1 34 14q13 14 14 34v288
q-1 20 -14 34q-14 13 -34 14h-32v0z" />
    <glyph glyph-name="pause" unicode="&#x23f8;" horiz-adv-x="320" 
d="M48 384q-20 -1 -34 -14v0q-13 -14 -14 -34v-288q1 -20 14 -34q14 -13 34 -14h32q20 1 34 14q13 14 14 34v288q-1 20 -14 34q-14 13 -34 14h-32v0zM240 384q-20 -1 -34 -14v0q-13 -14 -14 -34v-288q1 -20 14 -34q14 -13 34 -14h32q20 1 34 14q13 14 14 34v288
q-1 20 -14 34q-14 13 -34 14h-32v0z" />
    <glyph glyph-name="stop" unicode="&#xf04d;" horiz-adv-x="384" 
d="M0 320q1 27 19 45v0q18 18 45 19h256q27 -1 45 -19t19 -45v-256q-1 -27 -19 -45t-45 -19h-256q-27 1 -45 19t-19 45v256v0z" />
    <glyph glyph-name="stop" unicode="&#x23f9;" horiz-adv-x="384" 
d="M0 320q1 27 19 45v0q18 18 45 19h256q27 -1 45 -19t19 -45v-256q-1 -27 -19 -45t-45 -19h-256q-27 1 -45 19t-19 45v256v0z" />
    <glyph glyph-name="power-off" unicode="&#xf011;" 
d="M288 416q0 14 -9 23v0q-9 9 -23 9t-23 -9t-9 -23v-224q0 -14 9 -23t23 -9t23 9t9 23v224v0zM144 327q10 9 11 22v0q1 13 -7 23q-9 11 -22 12t-23 -7q-41 -34 -64 -81q-23 -48 -23 -104q1 -67 33 -121t86 -86t121 -33q67 1 121 33t86 86t33 121q0 56 -23 104
q-24 47 -64 81q-10 8 -23 7t-22 -11q-8 -11 -7 -24t11 -22q30 -24 47 -59t17 -76q-2 -75 -52 -124q-49 -50 -124 -52q-75 2 -125 52q-49 49 -51 124q0 41 17 76t46 59h1z" />
    <glyph glyph-name="power-off" unicode="&#x23fb;" 
d="M288 416q0 14 -9 23v0q-9 9 -23 9t-23 -9t-9 -23v-224q0 -14 9 -23t23 -9t23 9t9 23v224v0zM144 327q10 9 11 22v0q1 13 -7 23q-9 11 -22 12t-23 -7q-41 -34 -64 -81q-23 -48 -23 -104q1 -67 33 -121t86 -86t121 -33q67 1 121 33t86 86t33 121q0 56 -23 104
q-24 47 -64 81q-10 8 -23 7t-22 -11q-8 -11 -7 -24t11 -22q30 -24 47 -59t17 -76q-2 -75 -52 -124q-49 -50 -124 -52q-75 2 -125 52q-49 49 -51 124q0 41 17 76t46 59h1z" />
    <glyph glyph-name="moon" unicode="&#x1f319;" horiz-adv-x="384" 
d="M224 416q-63 -1 -113 -31v0q-51 -29 -81 -80v0q-29 -50 -30 -113q1 -63 31 -113q29 -51 80 -80q50 -30 113 -31q93 2 155 63q8 9 3 19t-17 9q-14 -3 -30 -3q-74 2 -124 52q-49 49 -51 124q0 50 24 90q25 40 65 63q10 6 8 18q-3 10 -15 12q-9 1 -19 1h1z" />
    <glyph glyph-name="moon" unicode="&#xf186;" horiz-adv-x="384" 
d="M224 416q-63 -1 -113 -31v0q-51 -29 -81 -80v0q-29 -50 -30 -113q1 -63 31 -113q29 -51 80 -80q50 -30 113 -31q93 2 155 63q8 9 3 19t-17 9q-14 -3 -30 -3q-74 2 -124 52q-49 49 -51 124q0 50 24 90q25 40 65 63q10 6 8 18q-3 10 -15 12q-9 1 -19 1h1z" />
    <glyph glyph-name="moon" unicode="&#x23fe;" horiz-adv-x="384" 
d="M224 416q-63 -1 -113 -31v0q-51 -29 -81 -80v0q-29 -50 -30 -113q1 -63 31 -113q29 -51 80 -80q50 -30 113 -31q93 2 155 63q8 9 3 19t-17 9q-14 -3 -30 -3q-74 2 -124 52q-49 49 -51 124q0 50 24 90q25 40 65 63q10 6 8 18q-3 10 -15 12q-9 1 -19 1h1z" />
    <glyph glyph-name="circle-h" unicode="&#xf47e;" 
d="M256 -64q70 1 128 34v0q58 34 94 94q34 61 34 128t-34 128q-36 60 -94 94q-58 33 -128 34q-70 -1 -128 -34q-58 -34 -94 -94q-34 -61 -34 -128t34 -128q36 -60 94 -94q58 -33 128 -34v0zM368 296v-104v-104q-2 -22 -24 -24q-22 2 -24 24v80h-128v-80q-2 -22 -24 -24
q-22 2 -24 24v208q2 22 24 24q22 -2 24 -24v-80h128v80q2 22 24 24q22 -2 24 -24v0z" />
    <glyph glyph-name="circle-h" unicode="&#x24bd;" 
d="M256 -64q70 1 128 34v0q58 34 94 94q34 61 34 128t-34 128q-36 60 -94 94q-58 33 -128 34q-70 -1 -128 -34q-58 -34 -94 -94q-34 -61 -34 -128t34 -128q36 -60 94 -94q58 -33 128 -34v0zM368 296v-104v-104q-2 -22 -24 -24q-22 2 -24 24v80h-128v-80q-2 -22 -24 -24
q-22 2 -24 24v208q2 22 24 24q22 -2 24 -24v-80h128v80q2 22 24 24q22 -2 24 -24v0z" />
    <glyph glyph-name="square" unicode="&#xf0c8;" horiz-adv-x="448" 
d="M0 352q1 27 19 45v0q18 18 45 19h320q27 -1 45 -19t19 -45v-320q-1 -27 -19 -45t-45 -19h-320q-27 1 -45 19t-19 45v320v0z" />
    <glyph glyph-name="square" unicode="&#xf096;" horiz-adv-x="448" 
d="M0 352q1 27 19 45v0q18 18 45 19h320q27 -1 45 -19t19 -45v-320q-1 -27 -19 -45t-45 -19h-320q-27 1 -45 19t-19 45v320v0z" />
    <glyph glyph-name="square" unicode="&#x25fc;" horiz-adv-x="448" 
d="M0 352q1 27 19 45v0q18 18 45 19h320q27 -1 45 -19t19 -45v-320q-1 -27 -19 -45t-45 -19h-320q-27 1 -45 19t-19 45v320v0z" />
    <glyph glyph-name="square" unicode="&#x25fb;" horiz-adv-x="448" 
d="M0 352q1 27 19 45v0q18 18 45 19h320q27 -1 45 -19t19 -45v-320q-1 -27 -19 -45t-45 -19h-320q-27 1 -45 19t-19 45v320v0z" />
    <glyph glyph-name="square" unicode="&#x25a0;" horiz-adv-x="448" 
d="M0 352q1 27 19 45v0q18 18 45 19h320q27 -1 45 -19t19 -45v-320q-1 -27 -19 -45t-45 -19h-320q-27 1 -45 19t-19 45v320v0z" />
    <glyph glyph-name="play" unicode="&#xf04b;" horiz-adv-x="384" 
d="M73 409q-24 14 -48 1q-24 -14 -25 -42v-352q1 -28 25 -42q24 -13 48 1l288 176q22 14 23 41q-1 26 -23 41l-288 176v0z" />
    <glyph glyph-name="play" unicode="&#x25b6;" horiz-adv-x="384" 
d="M73 409q-24 14 -48 1q-24 -14 -25 -42v-352q1 -28 25 -42q24 -13 48 1l288 176q22 14 23 41q-1 26 -23 41l-288 176v0z" />
    <glyph glyph-name="circle" unicode="&#x1f7e4;" 
d="M256 -64q70 1 128 34v0q58 34 94 94q34 61 34 128t-34 128q-36 60 -94 94q-58 33 -128 34q-70 -1 -128 -34q-58 -34 -94 -94q-34 -61 -34 -128t34 -128q36 -60 94 -94q58 -33 128 -34v0z" />
    <glyph glyph-name="circle" unicode="&#x1f7e3;" 
d="M256 -64q70 1 128 34v0q58 34 94 94q34 61 34 128t-34 128q-36 60 -94 94q-58 33 -128 34q-70 -1 -128 -34q-58 -34 -94 -94q-34 -61 -34 -128t34 -128q36 -60 94 -94q58 -33 128 -34v0z" />
    <glyph glyph-name="circle" unicode="&#x1f7e2;" 
d="M256 -64q70 1 128 34v0q58 34 94 94q34 61 34 128t-34 128q-36 60 -94 94q-58 33 -128 34q-70 -1 -128 -34q-58 -34 -94 -94q-34 -61 -34 -128t34 -128q36 -60 94 -94q58 -33 128 -34v0z" />
    <glyph glyph-name="circle" unicode="&#x1f7e1;" 
d="M256 -64q70 1 128 34v0q58 34 94 94q34 61 34 128t-34 128q-36 60 -94 94q-58 33 -128 34q-70 -1 -128 -34q-58 -34 -94 -94q-34 -61 -34 -128t34 -128q36 -60 94 -94q58 -33 128 -34v0z" />
    <glyph glyph-name="circle" unicode="&#x1f7e0;" 
d="M256 -64q70 1 128 34v0q58 34 94 94q34 61 34 128t-34 128q-36 60 -94 94q-58 33 -128 34q-70 -1 -128 -34q-58 -34 -94 -94q-34 -61 -34 -128t34 -128q36 -60 94 -94q58 -33 128 -34v0z" />
    <glyph glyph-name="circle" unicode="&#x1f535;" 
d="M256 -64q70 1 128 34v0q58 34 94 94q34 61 34 128t-34 128q-36 60 -94 94q-58 33 -128 34q-70 -1 -128 -34q-58 -34 -94 -94q-34 -61 -34 -128t34 -128q36 -60 94 -94q58 -33 128 -34v0z" />
    <glyph glyph-name="circle" unicode="&#x1f534;" 
d="M256 -64q70 1 128 34v0q58 34 94 94q34 61 34 128t-34 128q-36 60 -94 94q-58 33 -128 34q-70 -1 -128 -34q-58 -34 -94 -94q-34 -61 -34 -128t34 -128q36 -60 94 -94q58 -33 128 -34v0z" />
    <glyph glyph-name="circle" unicode="&#xf1db;" 
d="M256 -64q70 1 128 34v0q58 34 94 94q34 61 34 128t-34 128q-36 60 -94 94q-58 33 -128 34q-70 -1 -128 -34q-58 -34 -94 -94q-34 -61 -34 -128t34 -128q36 -60 94 -94q58 -33 128 -34v0z" />
    <glyph glyph-name="circle" unicode="&#xf111;" 
d="M256 -64q70 1 128 34v0q58 34 94 94q34 61 34 128t-34 128q-36 60 -94 94q-58 33 -128 34q-70 -1 -128 -34q-58 -34 -94 -94q-34 -61 -34 -128t34 -128q36 -60 94 -94q58 -33 128 -34v0z" />
    <glyph glyph-name="circle" unicode="&#xf10c;" 
d="M256 -64q70 1 128 34v0q58 34 94 94q34 61 34 128t-34 128q-36 60 -94 94q-58 33 -128 34q-70 -1 -128 -34q-58 -34 -94 -94q-34 -61 -34 -128t34 -128q36 -60 94 -94q58 -33 128 -34v0z" />
    <glyph glyph-name="circle" unicode="&#x2b24;" 
d="M256 -64q70 1 128 34v0q58 34 94 94q34 61 34 128t-34 128q-36 60 -94 94q-58 33 -128 34q-70 -1 -128 -34q-58 -34 -94 -94q-34 -61 -34 -128t34 -128q36 -60 94 -94q58 -33 128 -34v0z" />
    <glyph glyph-name="circle" unicode="&#x26ab;" 
d="M256 -64q70 1 128 34v0q58 34 94 94q34 61 34 128t-34 128q-36 60 -94 94q-58 33 -128 34q-70 -1 -128 -34q-58 -34 -94 -94q-34 -61 -34 -128t34 -128q36 -60 94 -94q58 -33 128 -34v0z" />
    <glyph glyph-name="circle" unicode="&#x26aa;" 
d="M256 -64q70 1 128 34v0q58 34 94 94q34 61 34 128t-34 128q-36 60 -94 94q-58 33 -128 34q-70 -1 -128 -34q-58 -34 -94 -94q-34 -61 -34 -128t34 -128q36 -60 94 -94q58 -33 128 -34v0z" />
    <glyph glyph-name="circle" unicode="&#x25cf;" 
d="M256 -64q70 1 128 34v0q58 34 94 94q34 61 34 128t-34 128q-36 60 -94 94q-58 33 -128 34q-70 -1 -128 -34q-58 -34 -94 -94q-34 -61 -34 -128t34 -128q36 -60 94 -94q58 -33 128 -34v0z" />
    <glyph glyph-name="circle-half-stroke" unicode="&#xf042;" 
d="M448 192q-2 82 -56 136v0q-54 54 -136 56v-384q82 2 136 56t56 136v0zM0 192q1 70 34 128v0q34 58 94 94q61 34 128 34t128 -34q60 -36 94 -94q33 -58 34 -128q-1 -70 -34 -128q-34 -58 -94 -94q-61 -34 -128 -34t-128 34q-60 36 -94 94q-33 58 -34 128v0z" />
    <glyph glyph-name="circle-half-stroke" unicode="&#x25d0;" 
d="M448 192q-2 82 -56 136v0q-54 54 -136 56v-384q82 2 136 56t56 136v0zM0 192q1 70 34 128v0q34 58 94 94q61 34 128 34t128 -34q60 -36 94 -94q33 -58 34 -128q-1 -70 -34 -128q-34 -58 -94 -94q-61 -34 -128 -34t-128 34q-60 36 -94 94q-33 58 -34 128v0z" />
    <glyph glyph-name="sun" unicode="&#xf185;" 
d="M362 447q7 -4 9 -12l20 -108l108 -20q8 -2 12 -9q3 -8 -2 -16l-62 -90l62 -90q5 -8 2 -16q-4 -7 -12 -9l-108 -20l-20 -108q-2 -8 -9 -12q-8 -3 -16 2l-90 62l-90 -62q-8 -5 -15 -2q-8 4 -10 12l-20 108l-108 20q-8 2 -12 9q-3 8 2 16l62 90l-62 90q-5 8 -2 15q4 8 12 10
l108 20l20 108q2 8 10 12q7 3 15 -2l90 -62l90 62q8 5 16 2v0zM160 192q0 26 13 48v0q13 22 35 35q23 13 48 13t48 -13q22 -13 35 -35t13 -48t-13 -48t-35 -35q-23 -13 -48 -13t-48 13q-22 13 -35 35t-13 48v0zM384 192q0 35 -17 64v0q-17 29 -47 47q-30 17 -64 17t-64 -17
q-30 -18 -47 -47t-17 -64t17 -64t47 -47q30 -17 64 -17t64 17q30 18 47 47t17 64v0z" />
    <glyph glyph-name="sun" unicode="&#x2600;" 
d="M362 447q7 -4 9 -12l20 -108l108 -20q8 -2 12 -9q3 -8 -2 -16l-62 -90l62 -90q5 -8 2 -16q-4 -7 -12 -9l-108 -20l-20 -108q-2 -8 -9 -12q-8 -3 -16 2l-90 62l-90 -62q-8 -5 -15 -2q-8 4 -10 12l-20 108l-108 20q-8 2 -12 9q-3 8 2 16l62 90l-62 90q-5 8 -2 15q4 8 12 10
l108 20l20 108q2 8 10 12q7 3 15 -2l90 -62l90 62q8 5 16 2v0zM160 192q0 26 13 48v0q13 22 35 35q23 13 48 13t48 -13q22 -13 35 -35t13 -48t-13 -48t-35 -35q-23 -13 -48 -13t-48 13q-22 13 -35 35t-13 48v0zM384 192q0 35 -17 64v0q-17 29 -47 47q-30 17 -64 17t-64 -17
q-30 -18 -47 -47t-17 -64t17 -64t47 -47q30 -17 64 -17t64 17q30 18 47 47t17 64v0z" />
    <glyph glyph-name="cloud" unicode="&#xf0c2;" horiz-adv-x="640" 
d="M0 112q2 -61 42 -102v0q41 -40 102 -42h368q54 1 91 37q36 37 37 91q-1 47 -29 81q-29 35 -73 44q6 17 6 35q-1 41 -28 68t-68 28q-30 0 -53 -16q-22 36 -58 58q-36 21 -81 22q-68 -2 -113 -47t-47 -113v-8v0q-43 -16 -69 -52t-27 -84v0z" />
    <glyph glyph-name="cloud" unicode="&#x2601;" horiz-adv-x="640" 
d="M0 112q2 -61 42 -102v0q41 -40 102 -42h368q54 1 91 37q36 37 37 91q-1 47 -29 81q-29 35 -73 44q6 17 6 35q-1 41 -28 68t-68 28q-30 0 -53 -16q-22 36 -58 58q-36 21 -81 22q-68 -2 -113 -47t-47 -113v-8v0q-43 -16 -69 -52t-27 -84v0z" />
    <glyph glyph-name="snowman" unicode="&#xf7d0;" 
d="M341 307q-3 -6 1 -12q11 -12 18 -28l48 21v40q2 22 24 24q22 -2 24 -24v-20l23 10q21 7 31 -13q7 -21 -13 -31l-56 -24l-73 -32q-1 -14 -5 -27q-2 -6 3 -11q48 -45 50 -116q-2 -69 -48 -114q-16 -14 -37 -14h-150q-22 0 -37 14q-46 45 -48 114q2 71 50 116q5 5 3 11
q-4 13 -5 27l-73 32l-56 24q-20 11 -13 31q10 20 31 13l23 -10v20q2 22 24 24q22 -2 24 -24v-40l49 -21q6 16 17 28q4 6 1 12q-11 21 -11 45q1 41 28 68t68 28q41 -1 68 -28t28 -68q0 -24 -11 -45v0zM224 352q15 1 16 16q-1 15 -16 16q-15 -1 -16 -16q1 -15 16 -16v0z
M272 224q-1 15 -16 16q-15 -1 -16 -16q1 -15 16 -16q15 1 16 16v0zM256 144q15 1 16 16q-1 15 -16 16q-15 -1 -16 -16q1 -15 16 -16v0zM272 96q-1 15 -16 16q-15 -1 -16 -16q1 -15 16 -16q15 1 16 16v0zM288 352q15 1 16 16q-1 15 -16 16q-15 -1 -16 -16q1 -15 16 -16v0z
M240 328v-3q0 -5 2 -9l9 -17q2 -3 5 -3t5 3l9 17q2 4 2 9v3q-1 15 -16 16q-15 -1 -16 -16v0z" />
    <glyph glyph-name="snowman" unicode="&#x26c4;" 
d="M341 307q-3 -6 1 -12q11 -12 18 -28l48 21v40q2 22 24 24q22 -2 24 -24v-20l23 10q21 7 31 -13q7 -21 -13 -31l-56 -24l-73 -32q-1 -14 -5 -27q-2 -6 3 -11q48 -45 50 -116q-2 -69 -48 -114q-16 -14 -37 -14h-150q-22 0 -37 14q-46 45 -48 114q2 71 50 116q5 5 3 11
q-4 13 -5 27l-73 32l-56 24q-20 11 -13 31q10 20 31 13l23 -10v20q2 22 24 24q22 -2 24 -24v-40l49 -21q6 16 17 28q4 6 1 12q-11 21 -11 45q1 41 28 68t68 28q41 -1 68 -28t28 -68q0 -24 -11 -45v0zM224 352q15 1 16 16q-1 15 -16 16q-15 -1 -16 -16q1 -15 16 -16v0z
M272 224q-1 15 -16 16q-15 -1 -16 -16q1 -15 16 -16q15 1 16 16v0zM256 144q15 1 16 16q-1 15 -16 16q-15 -1 -16 -16q1 -15 16 -16v0zM272 96q-1 15 -16 16q-15 -1 -16 -16q1 -15 16 -16q15 1 16 16v0zM288 352q15 1 16 16q-1 15 -16 16q-15 -1 -16 -16q1 -15 16 -16v0z
M240 328v-3q0 -5 2 -9l9 -17q2 -3 5 -3t5 3l9 17q2 4 2 9v3q-1 15 -16 16q-15 -1 -16 -16v0z" />
    <glyph glyph-name="snowman" unicode="&#x2603;" 
d="M341 307q-3 -6 1 -12q11 -12 18 -28l48 21v40q2 22 24 24q22 -2 24 -24v-20l23 10q21 7 31 -13q7 -21 -13 -31l-56 -24l-73 -32q-1 -14 -5 -27q-2 -6 3 -11q48 -45 50 -116q-2 -69 -48 -114q-16 -14 -37 -14h-150q-22 0 -37 14q-46 45 -48 114q2 71 50 116q5 5 3 11
q-4 13 -5 27l-73 32l-56 24q-20 11 -13 31q10 20 31 13l23 -10v20q2 22 24 24q22 -2 24 -24v-40l49 -21q6 16 17 28q4 6 1 12q-11 21 -11 45q1 41 28 68t68 28q41 -1 68 -28t28 -68q0 -24 -11 -45v0zM224 352q15 1 16 16q-1 15 -16 16q-15 -1 -16 -16q1 -15 16 -16v0z
M272 224q-1 15 -16 16q-15 -1 -16 -16q1 -15 16 -16q15 1 16 16v0zM256 144q15 1 16 16q-1 15 -16 16q-15 -1 -16 -16q1 -15 16 -16v0zM272 96q-1 15 -16 16q-15 -1 -16 -16q1 -15 16 -16q15 1 16 16v0zM288 352q15 1 16 16q-1 15 -16 16q-15 -1 -16 -16q1 -15 16 -16v0z
M240 328v-3q0 -5 2 -9l9 -17q2 -3 5 -3t5 3l9 17q2 4 2 9v3q-1 15 -16 16q-15 -1 -16 -16v0z" />
    <glyph glyph-name="meteor" unicode="&#xf753;" 
d="M494 447l-195 -75l3 30q0 10 -8 14q-7 5 -16 1l-177 -102q-47 -28 -74 -75q-27 -46 -27 -101q2 -86 59 -144q58 -57 144 -59q55 0 101 27q47 27 75 74l102 177q4 9 0 16q-5 8 -15 8l-30 -3l75 195q1 2 1 5q-1 12 -13 13q-3 0 -5 -1v0zM192 256q35 0 64 -17v0
q29 -17 47 -47q17 -30 17 -64t-17 -64q-18 -30 -47 -47t-64 -17t-64 17t-47 47q-17 30 -17 64t17 64q18 30 47 47t64 17v0zM192 160q0 14 -9 23v0q-9 9 -23 9t-23 -9t-9 -23t9 -23t23 -9t23 9t9 23v0zM208 64q15 1 16 16q-1 15 -16 16q-15 -1 -16 -16q1 -15 16 -16v0z" />
    <glyph glyph-name="meteor" unicode="&#x2604;" 
d="M494 447l-195 -75l3 30q0 10 -8 14q-7 5 -16 1l-177 -102q-47 -28 -74 -75q-27 -46 -27 -101q2 -86 59 -144q58 -57 144 -59q55 0 101 27q47 27 75 74l102 177q4 9 0 16q-5 8 -15 8l-30 -3l75 195q1 2 1 5q-1 12 -13 13q-3 0 -5 -1v0zM192 256q35 0 64 -17v0
q29 -17 47 -47q17 -30 17 -64t-17 -64q-18 -30 -47 -47t-64 -17t-64 17t-47 47q-17 30 -17 64t17 64q18 30 47 47t64 17v0zM192 160q0 14 -9 23v0q-9 9 -23 9t-23 -9t-9 -23t9 -23t23 -9t23 9t9 23v0zM208 64q15 1 16 16q-1 15 -16 16q-15 -1 -16 -16q1 -15 16 -16v0z" />
    <glyph glyph-name="square-check" unicode="&#xf14a;" horiz-adv-x="448" 
d="M64 416q-27 -1 -45 -19v0q-18 -18 -19 -45v-320q1 -27 19 -45t45 -19h320q27 1 45 19t19 45v320q-1 27 -19 45t-45 19h-320v0zM337 239l-128 -128q-17 -14 -34 0l-64 64q-14 17 0 34q17 14 34 0l47 -47l111 111q17 14 34 0q14 -17 0 -34v0z" />
    <glyph glyph-name="square-check" unicode="&#xf046;" horiz-adv-x="448" 
d="M64 416q-27 -1 -45 -19v0q-18 -18 -19 -45v-320q1 -27 19 -45t45 -19h320q27 1 45 19t19 45v320q-1 27 -19 45t-45 19h-320v0zM337 239l-128 -128q-17 -14 -34 0l-64 64q-14 17 0 34q17 14 34 0l47 -47l111 111q17 14 34 0q14 -17 0 -34v0z" />
    <glyph glyph-name="square-check" unicode="&#x2705;" horiz-adv-x="448" 
d="M64 416q-27 -1 -45 -19v0q-18 -18 -19 -45v-320q1 -27 19 -45t45 -19h320q27 1 45 19t19 45v320q-1 27 -19 45t-45 19h-320v0zM337 239l-128 -128q-17 -14 -34 0l-64 64q-14 17 0 34q17 14 34 0l47 -47l111 111q17 14 34 0q14 -17 0 -34v0z" />
    <glyph glyph-name="square-check" unicode="&#x2611;" horiz-adv-x="448" 
d="M64 416q-27 -1 -45 -19v0q-18 -18 -19 -45v-320q1 -27 19 -45t45 -19h320q27 1 45 19t19 45v320q-1 27 -19 45t-45 19h-320v0zM337 239l-128 -128q-17 -14 -34 0l-64 64q-14 17 0 34q17 14 34 0l47 -47l111 111q17 14 34 0q14 -17 0 -34v0z" />
    <glyph glyph-name="mug-hot" unicode="&#xf7b6;" 
d="M88 448q-22 -2 -24 -24q1 -29 14 -46q12 -17 25 -27l1 -1q12 -10 18 -18t6 -20q2 -22 24 -24q22 2 24 24q-1 29 -14 46q-12 17 -25 27l-1 1q-12 10 -18 18t-6 20q-2 22 -24 24v0zM32 256q-14 0 -23 -9v0q-9 -9 -9 -23v-192q1 -41 28 -68t68 -28h192q41 1 68 28t28 68h16
q48 1 79 33q32 31 33 79q-1 48 -33 79q-31 32 -79 33h-48h-320v0zM384 192h16q20 -1 34 -14q13 -14 14 -34q-1 -20 -14 -34q-14 -13 -34 -14h-16v96v0zM224 424q-2 22 -24 24q-22 -2 -24 -24q1 -29 14 -46q12 -17 25 -27l1 -1q12 -10 18 -18t6 -20q2 -22 24 -24q22 2 24 24
q-1 29 -14 46q-12 17 -25 27l-1 1q-12 10 -18 18t-6 20v0z" />
    <glyph glyph-name="mug-hot" unicode="&#x2615;" 
d="M88 448q-22 -2 -24 -24q1 -29 14 -46q12 -17 25 -27l1 -1q12 -10 18 -18t6 -20q2 -22 24 -24q22 2 24 24q-1 29 -14 46q-12 17 -25 27l-1 1q-12 10 -18 18t-6 20q-2 22 -24 24v0zM32 256q-14 0 -23 -9v0q-9 -9 -9 -23v-192q1 -41 28 -68t68 -28h192q41 1 68 28t28 68h16
q48 1 79 33q32 31 33 79q-1 48 -33 79q-31 32 -79 33h-48h-320v0zM384 192h16q20 -1 34 -14q13 -14 14 -34q-1 -20 -14 -34q-14 -13 -34 -14h-16v96v0zM224 424q-2 22 -24 24q-22 -2 -24 -24q1 -29 14 -46q12 -17 25 -27l1 -1q12 -10 18 -18t6 -20q2 -22 24 -24q22 2 24 24
q-1 29 -14 46q-12 17 -25 27l-1 1q-12 10 -18 18t-6 20v0z" />
    <glyph glyph-name="hand-point-up" unicode="&#xf0a6;" horiz-adv-x="384" 
d="M32 416q0 14 9 23v0q9 9 23 9t23 -9t9 -23v-208h-64v208v0zM224 256q0 14 9 23v0q9 9 23 9t23 -9t9 -23v-64q0 -14 -9 -23t-23 -9t-23 9t-9 23v64v0zM160 320q14 0 23 -9v0q9 -9 9 -23v-48q0 -14 -9 -23t-23 -9t-23 9t-9 23v48q0 14 9 23t23 9v0zM320 224q0 14 9 23v0
q9 9 23 9t23 -9t9 -23v-64q0 -14 -9 -23t-23 -9t-23 9t-9 23v64v0zM224 136v1q14 -9 32 -9q20 0 36 11q6 -19 23 -31q16 -12 37 -12q18 0 32 9v-9q-2 -68 -47 -113t-113 -47h-62q-66 1 -113 47l-11 11q-37 38 -38 91v27q1 27 19 45t45 19h88q17 0 28 -12q12 -11 12 -28
t-12 -28q-11 -12 -28 -12h-56q-15 -1 -16 -16q1 -15 16 -16h56q31 1 51 21t21 51v0z" />
    <glyph glyph-name="hand-point-up" unicode="&#x261d;" horiz-adv-x="384" 
d="M32 416q0 14 9 23v0q9 9 23 9t23 -9t9 -23v-208h-64v208v0zM224 256q0 14 9 23v0q9 9 23 9t23 -9t9 -23v-64q0 -14 -9 -23t-23 -9t-23 9t-9 23v64v0zM160 320q14 0 23 -9v0q9 -9 9 -23v-48q0 -14 -9 -23t-23 -9t-23 9t-9 23v48q0 14 9 23t23 9v0zM320 224q0 14 9 23v0
q9 9 23 9t23 -9t9 -23v-64q0 -14 -9 -23t-23 -9t-23 9t-9 23v64v0zM224 136v1q14 -9 32 -9q20 0 36 11q6 -19 23 -31q16 -12 37 -12q18 0 32 9v-9q-2 -68 -47 -113t-113 -47h-62q-66 1 -113 47l-11 11q-37 38 -38 91v27q1 27 19 45t45 19h88q17 0 28 -12q12 -11 12 -28
t-12 -28q-11 -12 -28 -12h-56q-15 -1 -16 -16q1 -15 16 -16h56q31 1 51 21t21 51v0z" />
    <glyph glyph-name="skull-crossbones" unicode="&#x1f571;" horiz-adv-x="448" 
d="M368 320q0 -34 -18 -61v0q-17 -28 -46 -45v-22q0 -14 -9 -23t-23 -9h-96q-14 0 -23 9t-9 23v22q-29 17 -46 45q-18 27 -18 61q2 54 42 91q41 36 102 37q61 -1 102 -37q40 -37 42 -91v0zM168 272q14 0 23 9v0q9 9 9 23t-9 23t-23 9t-23 -9t-9 -23t9 -23t23 -9v0zM312 304
q0 14 -9 23v0q-9 9 -23 9t-23 -9t-9 -23t9 -23t23 -9t23 9t9 23v0zM3 174q7 12 19 16v0q12 4 24 -1l178 -89l178 89q12 5 24 1t19 -16q5 -12 1 -24t-16 -19l-134 -67l134 -67q12 -7 16 -19t-1 -24q-7 -12 -19 -16t-24 1l-178 89l-178 -89q-12 -5 -24 -1t-19 16q-5 12 -1 24
t16 19l134 67l-134 67q-12 7 -16 19t1 24v0z" />
    <glyph glyph-name="skull-crossbones" unicode="&#xf714;" horiz-adv-x="448" 
d="M368 320q0 -34 -18 -61v0q-17 -28 -46 -45v-22q0 -14 -9 -23t-23 -9h-96q-14 0 -23 9t-9 23v22q-29 17 -46 45q-18 27 -18 61q2 54 42 91q41 36 102 37q61 -1 102 -37q40 -37 42 -91v0zM168 272q14 0 23 9v0q9 9 9 23t-9 23t-23 9t-23 -9t-9 -23t9 -23t23 -9v0zM312 304
q0 14 -9 23v0q-9 9 -23 9t-23 -9t-9 -23t9 -23t23 -9t23 9t9 23v0zM3 174q7 12 19 16v0q12 4 24 -1l178 -89l178 89q12 5 24 1t19 -16q5 -12 1 -24t-16 -19l-134 -67l134 -67q12 -7 16 -19t-1 -24q-7 -12 -19 -16t-24 1l-178 89l-178 -89q-12 -5 -24 -1t-19 16q-5 12 -1 24
t16 19l134 67l-134 67q-12 7 -16 19t1 24v0z" />
    <glyph glyph-name="skull-crossbones" unicode="&#x2620;" horiz-adv-x="448" 
d="M368 320q0 -34 -18 -61v0q-17 -28 -46 -45v-22q0 -14 -9 -23t-23 -9h-96q-14 0 -23 9t-9 23v22q-29 17 -46 45q-18 27 -18 61q2 54 42 91q41 36 102 37q61 -1 102 -37q40 -37 42 -91v0zM168 272q14 0 23 9v0q9 9 9 23t-9 23t-23 9t-23 -9t-9 -23t9 -23t23 -9v0zM312 304
q0 14 -9 23v0q-9 9 -23 9t-23 -9t-9 -23t9 -23t23 -9t23 9t9 23v0zM3 174q7 12 19 16v0q12 4 24 -1l178 -89l178 89q12 5 24 1t19 -16q5 -12 1 -24t-16 -19l-134 -67l134 -67q12 -7 16 -19t-1 -24q-7 -12 -19 -16t-24 1l-178 89l-178 -89q-12 -5 -24 -1t-19 16q-5 12 -1 24
t16 19l134 67l-134 67q-12 7 -16 19t1 24v0z" />
    <glyph glyph-name="circle-radiation" unicode="&#xf7ba;" 
d="M256 384q52 0 96 -26v0q44 -25 70 -70t26 -96t-26 -96t-70 -70q-44 -26 -96 -26t-96 26q-44 25 -70 70t-26 96t26 96t70 70q44 26 96 26v0zM256 -64q70 1 128 34v0q58 34 94 94q34 61 34 128t-34 128q-36 60 -94 94q-58 33 -128 34q-70 -1 -128 -34q-58 -34 -94 -94
q-34 -61 -34 -128t34 -128q36 -60 94 -94q58 -33 128 -34v0zM200 192q1 32 28 48l-36 63q-7 12 -19 14q-12 3 -23 -5q-39 -35 -51 -88q-2 -14 7 -23q8 -9 22 -9h72v0zM228 143l-36 -62q-7 -12 -3 -24q3 -12 16 -17q24 -8 51 -8t51 8q13 5 16 17q4 12 -3 24l-36 62
q-12 -7 -28 -7q-15 0 -28 7v0zM312 192h72q14 0 22 9q9 9 7 23q-12 53 -51 88q-11 8 -23 6q-12 -3 -19 -15l-36 -62q26 -16 28 -49v0zM256 160q14 0 23 9v0q9 9 9 23t-9 23t-23 9t-23 -9t-9 -23t9 -23t23 -9v0z" />
    <glyph glyph-name="circle-radiation" unicode="&#x2622;" 
d="M256 384q52 0 96 -26v0q44 -25 70 -70t26 -96t-26 -96t-70 -70q-44 -26 -96 -26t-96 26q-44 25 -70 70t-26 96t26 96t70 70q44 26 96 26v0zM256 -64q70 1 128 34v0q58 34 94 94q34 61 34 128t-34 128q-36 60 -94 94q-58 33 -128 34q-70 -1 -128 -34q-58 -34 -94 -94
q-34 -61 -34 -128t34 -128q36 -60 94 -94q58 -33 128 -34v0zM200 192q1 32 28 48l-36 63q-7 12 -19 14q-12 3 -23 -5q-39 -35 -51 -88q-2 -14 7 -23q8 -9 22 -9h72v0zM228 143l-36 -62q-7 -12 -3 -24q3 -12 16 -17q24 -8 51 -8t51 8q13 5 16 17q4 12 -3 24l-36 62
q-12 -7 -28 -7q-15 0 -28 7v0zM312 192h72q14 0 22 9q9 9 7 23q-12 53 -51 88q-11 8 -23 6q-12 -3 -19 -15l-36 -62q26 -16 28 -49v0zM256 160q14 0 23 9v0q9 9 9 23t-9 23t-23 9t-23 -9t-9 -23t9 -23t23 -9v0z" />
    <glyph glyph-name="biohazard" unicode="&#xf780;" horiz-adv-x="576" 
d="M173 448q-3 0 -5 -2q-46 -47 -48 -118q0 -40 17 -73q-34 -4 -65 -21q-52 -30 -72 -82q-1 -3 1 -5q4 -6 11 -2q42 38 98 37q57 0 95 -58q33 -61 5 -109t-83 -64q-6 -3 -4 -10q2 -2 5 -3q56 -9 110 19q30 18 50 44q20 -26 51 -44q53 -28 109 -19q3 1 5 3q2 7 -4 10
q-55 16 -83 64t5 109q38 58 95 58q56 1 99 -37q6 -4 10 2q2 2 1 5q-20 52 -73 82q-30 17 -64 21q17 33 17 73q-2 71 -48 118q-2 2 -5 2q-9 -1 -7 -10q13 -36 5 -74t-36 -65q-28 -26 -77 -27q-49 1 -77 27q-28 27 -36 65t5 74q2 9 -7 10v0zM240 176q1 27 24 42q24 12 48 0
q23 -15 24 -42q-1 -27 -24 -42q-24 -12 -48 0q-23 15 -24 42v0zM182 30q10 18 8 40q-30 28 -41 68q-19 12 -40 12q-13 1 -27 -2q6 -43 28 -79q21 -36 55 -61q10 10 17 22v0zM288 384q-44 0 -81 -17q3 -12 9 -23q10 -19 30 -30q20 6 42 6t42 -6q20 11 30 30q6 11 9 23
q-38 17 -81 17v0zM427 138q-11 -40 -41 -68q-2 -22 8 -40q7 -12 17 -22q34 25 55 61q22 36 28 79q-14 3 -27 2q-21 0 -40 -12v0z" />
    <glyph glyph-name="biohazard" unicode="&#x2623;" horiz-adv-x="576" 
d="M173 448q-3 0 -5 -2q-46 -47 -48 -118q0 -40 17 -73q-34 -4 -65 -21q-52 -30 -72 -82q-1 -3 1 -5q4 -6 11 -2q42 38 98 37q57 0 95 -58q33 -61 5 -109t-83 -64q-6 -3 -4 -10q2 -2 5 -3q56 -9 110 19q30 18 50 44q20 -26 51 -44q53 -28 109 -19q3 1 5 3q2 7 -4 10
q-55 16 -83 64t5 109q38 58 95 58q56 1 99 -37q6 -4 10 2q2 2 1 5q-20 52 -73 82q-30 17 -64 21q17 33 17 73q-2 71 -48 118q-2 2 -5 2q-9 -1 -7 -10q13 -36 5 -74t-36 -65q-28 -26 -77 -27q-49 1 -77 27q-28 27 -36 65t5 74q2 9 -7 10v0zM240 176q1 27 24 42q24 12 48 0
q23 -15 24 -42q-1 -27 -24 -42q-24 -12 -48 0q-23 15 -24 42v0zM182 30q10 18 8 40q-30 28 -41 68q-19 12 -40 12q-13 1 -27 -2q6 -43 28 -79q21 -36 55 -61q10 10 17 22v0zM288 384q-44 0 -81 -17q3 -12 9 -23q10 -19 30 -30q20 6 42 6t42 -6q20 11 30 30q6 11 9 23
q-38 17 -81 17v0zM427 138q-11 -40 -41 -68q-2 -22 8 -40q7 -12 17 -22q34 25 55 61q22 36 28 79q-14 3 -27 2q-21 0 -40 -12v0z" />
    <glyph glyph-name="ankh" unicode="&#xf644;" horiz-adv-x="320" 
d="M96 320q1 27 19 45v0q18 18 45 19q27 -1 45 -19t19 -45q0 -31 -14 -57q-13 -26 -33 -47l-17 -17l-17 17q-20 21 -33 47q-14 26 -14 57v0zM160 448q-54 -1 -91 -37v0q-36 -37 -37 -91q1 -39 14 -71q13 -33 33 -57h-47q-14 0 -23 -9t-9 -23t9 -23t23 -9h96v-160
q0 -14 9 -23t23 -9t23 9t9 23v160h96q14 0 23 9t9 23t-9 23t-23 9h-47q20 24 33 57q13 32 14 71q-1 54 -37 91q-37 36 -91 37v0z" />
    <glyph glyph-name="ankh" unicode="&#x2625;" horiz-adv-x="320" 
d="M96 320q1 27 19 45v0q18 18 45 19q27 -1 45 -19t19 -45q0 -31 -14 -57q-13 -26 -33 -47l-17 -17l-17 17q-20 21 -33 47q-14 26 -14 57v0zM160 448q-54 -1 -91 -37v0q-36 -37 -37 -91q1 -39 14 -71q13 -33 33 -57h-47q-14 0 -23 -9t-9 -23t9 -23t23 -9h96v-160
q0 -14 9 -23t23 -9t23 9t9 23v160h96q14 0 23 9t9 23t-9 23t-23 9h-47q20 24 33 57q13 32 14 71q-1 54 -37 91q-37 36 -91 37v0z" />
    <glyph glyph-name="star-and-crescent" unicode="&#xf699;" 
d="M0 192q1 72 35 129v0q34 58 92 92v0q57 34 129 35q50 0 94 -18q11 -5 9 -18q-3 -13 -16 -13q-8 1 -15 1q-88 -2 -147 -61t-61 -147q2 -88 61 -147t147 -61h15q13 0 16 -12q2 -13 -9 -18q-44 -18 -94 -18q-72 1 -129 35q-58 34 -92 92q-34 57 -35 129v0zM375 311q3 5 9 5
v0q6 0 9 -5l31 -64q2 -5 7 -6l71 -10q6 -1 7 -6q2 -6 -2 -10l-51 -50q-3 -3 -3 -8l12 -70q1 -6 -4 -10q-4 -3 -10 0l-63 33q-4 2 -8 0l-63 -33q-6 -3 -11 0q-4 4 -3 10l12 70q0 5 -3 8l-51 50q-4 4 -2 10q1 5 7 6l71 10q5 1 7 6l31 64v0z" />
    <glyph glyph-name="star-and-crescent" unicode="&#x262a;" 
d="M0 192q1 72 35 129v0q34 58 92 92v0q57 34 129 35q50 0 94 -18q11 -5 9 -18q-3 -13 -16 -13q-8 1 -15 1q-88 -2 -147 -61t-61 -147q2 -88 61 -147t147 -61h15q13 0 16 -12q2 -13 -9 -18q-44 -18 -94 -18q-72 1 -129 35q-58 34 -92 92q-34 57 -35 129v0zM375 311q3 5 9 5
v0q6 0 9 -5l31 -64q2 -5 7 -6l71 -10q6 -1 7 -6q2 -6 -2 -10l-51 -50q-3 -3 -3 -8l12 -70q1 -6 -4 -10q-4 -3 -10 0l-63 33q-4 2 -8 0l-63 -33q-6 -3 -11 0q-4 4 -3 10l12 70q0 5 -3 8l-51 50q-4 4 -2 10q1 5 7 6l71 10q5 1 7 6l31 64v0z" />
    <glyph glyph-name="khanda" unicode="&#xf66d;" 
d="M246 444q10 8 20 0l48 -40q9 -8 4 -20v0v0v0v0v0v0q-1 -1 -2 -3q0 -1 -1 -3t-3 -5q0 -1 -1 -2v-1q26 -15 41 -41q16 -25 16 -57t-16 -57q-15 -26 -41 -41q0 -1 1 -3q3 -5 5 -8v0q0 -2 1 -3v0v0v0v0q5 -12 -4 -20l-42 -36v-19l36 24l41 28q32 23 50 57t18 73q0 48 -26 88
l-3 4q-6 10 1 20q8 8 19 3l-7 -14q5 10 6 13q2 2 1 1v0v0v0h1h1q0 -1 1 -1q1 -1 2 -1v0q5 -3 12 -8q15 -9 35 -29q21 -19 36 -49q16 -30 17 -70q-1 -40 -16 -74q-16 -34 -35 -60q-20 -25 -35 -39l-11 -11q-2 -1 -3 -2v-1l-1 -1h-1v0v0v0q1 0 -1 1q-2 2 -9 11l10 -12
q-8 -7 -18 -2l-76 43l-32 -22l45 -32q3 1 6 1q22 -2 24 -24q-2 -22 -24 -24q-20 2 -24 21l-40 28v-29q15 -9 16 -28q0 -14 -9 -23t-23 -9t-23 9t-9 23q1 19 16 28v28l-40 -28q-5 -19 -24 -20q-22 2 -24 24q2 22 24 24q3 0 7 -1l45 32l-32 22l-76 -43q-10 -5 -18 2l10 12
q-7 -9 -9 -11t-1 -1v0v0v0h-1l-1 1v1q-1 0 -3 2l-11 11q-15 14 -35 39q-19 25 -35 60q-15 34 -16 74q1 40 17 70q15 30 36 49q20 20 35 29q8 5 12 8q1 0 2 1h1l1 1h1v0v0v0q0 1 1 -2l6 -12l-7 14q11 5 19 -4q7 -9 1 -19l-2 -4q-27 -40 -27 -88q0 -39 18 -73t50 -57l42 -28
l34 -24v19l-42 36q-9 8 -4 20v0v0v0v0v0q1 1 2 3q0 1 1 3t3 5q0 1 1 2v1q-26 15 -41 41q-16 25 -16 57t16 57q15 26 41 41q0 1 -1 3q-3 5 -4 8q-1 2 -2 3v0v0v0v0v0q-5 12 4 20l48 40v0zM220 325q-27 -18 -28 -53q1 -35 28 -53q11 29 12 53q-1 24 -12 53v0zM292 219
q27 18 28 53q-1 35 -28 53q-11 -29 -12 -53q1 -24 12 -53v0z" />
    <glyph glyph-name="khanda" unicode="&#x262c;" 
d="M246 444q10 8 20 0l48 -40q9 -8 4 -20v0v0v0v0v0v0q-1 -1 -2 -3q0 -1 -1 -3t-3 -5q0 -1 -1 -2v-1q26 -15 41 -41q16 -25 16 -57t-16 -57q-15 -26 -41 -41q0 -1 1 -3q3 -5 5 -8v0q0 -2 1 -3v0v0v0v0q5 -12 -4 -20l-42 -36v-19l36 24l41 28q32 23 50 57t18 73q0 48 -26 88
l-3 4q-6 10 1 20q8 8 19 3l-7 -14q5 10 6 13q2 2 1 1v0v0v0h1h1q0 -1 1 -1q1 -1 2 -1v0q5 -3 12 -8q15 -9 35 -29q21 -19 36 -49q16 -30 17 -70q-1 -40 -16 -74q-16 -34 -35 -60q-20 -25 -35 -39l-11 -11q-2 -1 -3 -2v-1l-1 -1h-1v0v0v0q1 0 -1 1q-2 2 -9 11l10 -12
q-8 -7 -18 -2l-76 43l-32 -22l45 -32q3 1 6 1q22 -2 24 -24q-2 -22 -24 -24q-20 2 -24 21l-40 28v-29q15 -9 16 -28q0 -14 -9 -23t-23 -9t-23 9t-9 23q1 19 16 28v28l-40 -28q-5 -19 -24 -20q-22 2 -24 24q2 22 24 24q3 0 7 -1l45 32l-32 22l-76 -43q-10 -5 -18 2l10 12
q-7 -9 -9 -11t-1 -1v0v0v0h-1l-1 1v1q-1 0 -3 2l-11 11q-15 14 -35 39q-19 25 -35 60q-15 34 -16 74q1 40 17 70q15 30 36 49q20 20 35 29q8 5 12 8q1 0 2 1h1l1 1h1v0v0v0q0 1 1 -2l6 -12l-7 14q11 5 19 -4q7 -9 1 -19l-2 -4q-27 -40 -27 -88q0 -39 18 -73t50 -57l42 -28
l34 -24v19l-42 36q-9 8 -4 20v0v0v0v0v0q1 1 2 3q0 1 1 3t3 5q0 1 1 2v1q-26 15 -41 41q-16 25 -16 57t16 57q15 26 41 41q0 1 -1 3q-3 5 -4 8q-1 2 -2 3v0v0v0v0v0q-5 12 4 20l48 40v0zM220 325q-27 -18 -28 -53q1 -35 28 -53q11 29 12 53q-1 24 -12 53v0zM292 219
q27 18 28 53q-1 35 -28 53q-11 -29 -12 -53q1 -24 12 -53v0z" />
    <glyph glyph-name="peace" unicode="&#xf67c;" 
d="M224 3v121l-94 -77q40 -35 94 -44v0zM89 97l135 110v174q-70 -13 -114 -64q-45 -52 -46 -125q1 -53 25 -95v0zM382 47l-94 77v-121q54 9 94 44v0zM423 97q25 42 25 95q-1 73 -46 125q-44 51 -114 64v-174l135 -110v0zM0 192q1 70 34 128v0q34 58 94 94q61 34 128 34
t128 -34q60 -36 94 -94q33 -58 34 -128q-1 -70 -34 -128q-34 -58 -94 -94q-61 -34 -128 -34t-128 34q-60 36 -94 94q-33 58 -34 128v0z" />
    <glyph glyph-name="peace" unicode="&#x262e;" 
d="M224 3v121l-94 -77q40 -35 94 -44v0zM89 97l135 110v174q-70 -13 -114 -64q-45 -52 -46 -125q1 -53 25 -95v0zM382 47l-94 77v-121q54 9 94 44v0zM423 97q25 42 25 95q-1 73 -46 125q-44 51 -114 64v-174l135 -110v0zM0 192q1 70 34 128v0q34 58 94 94q61 34 128 34
t128 -34q60 -36 94 -94q33 -58 34 -128q-1 -70 -34 -128q-34 -58 -94 -94q-61 -34 -128 -34t-128 34q-60 36 -94 94q-33 58 -34 128v0z" />
    <glyph glyph-name="yin-yang" unicode="&#xf6ad;" 
d="M256 384q41 -1 68 -28v0q27 -27 28 -68q-1 -41 -28 -68t-68 -28t-68 -28t-28 -68q1 -41 28 -68t68 -28q-82 2 -136 56t-56 136q2 82 56 136t136 56v0zM256 -64q70 1 128 34v0q58 34 94 94q34 61 34 128t-34 128q-36 60 -94 94q-58 33 -128 34q-70 -1 -128 -34
q-58 -34 -94 -94q-34 -61 -34 -128t34 -128q36 -60 94 -94q58 -33 128 -34v0zM288 288q0 14 -9 23v0q-9 9 -23 9t-23 -9t-9 -23t9 -23t23 -9t23 9t9 23v0zM224 96q0 14 9 23v0q9 9 23 9t23 -9t9 -23t-9 -23t-23 -9t-23 9t-9 23v0z" />
    <glyph glyph-name="yin-yang" unicode="&#x262f;" 
d="M256 384q41 -1 68 -28v0q27 -27 28 -68q-1 -41 -28 -68t-68 -28t-68 -28t-28 -68q1 -41 28 -68t68 -28q-82 2 -136 56t-56 136q2 82 56 136t136 56v0zM256 -64q70 1 128 34v0q58 34 94 94q34 61 34 128t-34 128q-36 60 -94 94q-58 33 -128 34q-70 -1 -128 -34
q-58 -34 -94 -94q-34 -61 -34 -128t34 -128q36 -60 94 -94q58 -33 128 -34v0zM288 288q0 14 -9 23v0q-9 9 -23 9t-23 -9t-9 -23t9 -23t23 -9t23 9t9 23v0zM224 96q0 14 9 23v0q9 9 23 9t23 -9t9 -23t-9 -23t-23 -9t-23 9t-9 23v0z" />
    <glyph glyph-name="dharmachakra" unicode="&#xf655;" 
d="M338 242l48 43q21 -30 28 -66l-65 -5q-3 16 -11 28v0zM478 223q-9 59 -43 104v1q11 9 11 22q1 13 -9 23q-10 9 -23 9t-22 -11h-1q-45 34 -104 43v1q0 14 -8 23q-9 10 -23 10t-23 -10q-8 -9 -8 -23v-1q-59 -9 -104 -43h-1q-9 11 -22 11q-13 1 -23 -9q-9 -10 -9 -23t11 -22
v-1q-34 -45 -43 -104h-1q-14 0 -23 -8q-10 -9 -10 -23t10 -23q9 -8 23 -8h1q9 -59 43 -104v-1q-11 -9 -11 -22q-1 -13 9 -23q10 -9 23 -9t22 10l1 1q45 -34 104 -43v-1q0 -14 8 -23q9 -10 23 -10t23 10q8 9 8 23v1q59 9 104 43h1q9 -11 22 -11q13 -1 23 9t9 23q0 13 -10 22
l-1 1q34 45 43 104h1q14 0 23 8q10 9 10 23t-10 23q-9 8 -23 8h-1v0zM163 322q30 21 66 28l5 -65q-15 -3 -28 -11l-43 48v0zM98 219q7 37 28 66l48 -43q-8 -13 -11 -28l-65 5v0zM126 99q-21 30 -28 66l65 5q3 -15 11 -28l-48 -43v0zM230 34q-37 7 -67 28l43 48q13 -8 28 -11
l-4 -65v0zM349 62q-29 -21 -66 -28l-5 65q16 3 28 11l43 -48v0zM414 165q-7 -37 -27 -66l-49 43q8 13 12 28l64 -5v0zM349 322l-43 -48q-12 8 -28 11l5 65q37 -7 66 -28v0zM256 224q14 0 23 -9v0q9 -9 9 -23t-9 -23t-23 -9t-23 9t-9 23t9 23t23 9v0z" />
    <glyph glyph-name="dharmachakra" unicode="&#x2638;" 
d="M338 242l48 43q21 -30 28 -66l-65 -5q-3 16 -11 28v0zM478 223q-9 59 -43 104v1q11 9 11 22q1 13 -9 23q-10 9 -23 9t-22 -11h-1q-45 34 -104 43v1q0 14 -8 23q-9 10 -23 10t-23 -10q-8 -9 -8 -23v-1q-59 -9 -104 -43h-1q-9 11 -22 11q-13 1 -23 -9q-9 -10 -9 -23t11 -22
v-1q-34 -45 -43 -104h-1q-14 0 -23 -8q-10 -9 -10 -23t10 -23q9 -8 23 -8h1q9 -59 43 -104v-1q-11 -9 -11 -22q-1 -13 9 -23q10 -9 23 -9t22 10l1 1q45 -34 104 -43v-1q0 -14 8 -23q9 -10 23 -10t23 10q8 9 8 23v1q59 9 104 43h1q9 -11 22 -11q13 -1 23 9t9 23q0 13 -10 22
l-1 1q34 45 43 104h1q14 0 23 8q10 9 10 23t-10 23q-9 8 -23 8h-1v0zM163 322q30 21 66 28l5 -65q-15 -3 -28 -11l-43 48v0zM98 219q7 37 28 66l48 -43q-8 -13 -11 -28l-65 5v0zM126 99q-21 30 -28 66l65 5q3 -15 11 -28l-48 -43v0zM230 34q-37 7 -67 28l43 48q13 -8 28 -11
l-4 -65v0zM349 62q-29 -21 -66 -28l-5 65q16 3 28 11l43 -48v0zM414 165q-7 -37 -27 -66l-49 43q8 13 12 28l64 -5v0zM349 322l-43 -48q-12 8 -28 11l5 65q37 -7 66 -28v0zM256 224q14 0 23 -9v0q9 -9 9 -23t-9 -23t-23 -9t-23 9t-9 23t9 23t23 9v0z" />
    <glyph glyph-name="face-frown" unicode="&#xf119;" 
d="M256 -64q70 1 128 34v0q58 34 94 94q34 61 34 128t-34 128q-36 60 -94 94q-58 33 -128 34q-70 -1 -128 -34q-58 -34 -94 -94q-34 -61 -34 -128t34 -128q36 -60 94 -94q58 -33 128 -34v0zM159 59q-5 -13 -20 -10q-13 6 -10 20q13 40 47 65t80 26q46 -1 80 -26t47 -65
q3 -15 -10 -20q-15 -3 -20 10q-10 30 -36 49t-61 20q-35 -1 -61 -20t-36 -49v0zM144 240q1 14 10 23v0q9 9 22 9q14 0 23 -9t9 -23t-9 -23t-23 -9q-13 0 -22 9t-10 23v0zM336 272q14 0 23 -9v0q9 -9 9 -23t-9 -23t-23 -9q-13 0 -22 9t-10 23q1 14 10 23t22 9v0z" />
    <glyph glyph-name="face-frown" unicode="&#x2639;" 
d="M256 -64q70 1 128 34v0q58 34 94 94q34 61 34 128t-34 128q-36 60 -94 94q-58 33 -128 34q-70 -1 -128 -34q-58 -34 -94 -94q-34 -61 -34 -128t34 -128q36 -60 94 -94q58 -33 128 -34v0zM159 59q-5 -13 -20 -10q-13 6 -10 20q13 40 47 65t80 26q46 -1 80 -26t47 -65
q3 -15 -10 -20q-15 -3 -20 10q-10 30 -36 49t-61 20q-35 -1 -61 -20t-36 -49v0zM144 240q1 14 10 23v0q9 9 22 9q14 0 23 -9t9 -23t-9 -23t-23 -9q-13 0 -22 9t-10 23v0zM336 272q14 0 23 -9v0q9 -9 9 -23t-9 -23t-23 -9q-13 0 -22 9t-10 23q1 14 10 23t22 9v0z" />
    <glyph glyph-name="mercury" unicode="&#xf223;" horiz-adv-x="384" 
d="M72 441q11 8 24 7v0q12 -2 21 -12q28 -35 75 -36q47 1 75 36q9 10 21 12q13 1 24 -7q10 -9 12 -21q1 -13 -7 -24q-12 -15 -26 -26q35 -24 56 -62t21 -84q-1 -68 -44 -116q-42 -48 -108 -58v-26h32q22 -2 24 -24q-2 -22 -24 -24h-32v-16q-2 -22 -24 -24q-22 2 -24 24v16
h-32q-22 2 -24 24q2 22 24 24h32v26q-66 10 -108 58q-43 48 -44 116q0 46 21 84t57 62q-15 11 -27 26q-8 11 -7 24q2 12 12 21v0zM80 224q0 -30 15 -56v0q15 -26 41 -41t56 -15t56 15t41 41t15 56t-15 56t-41 41t-56 15t-56 -15t-41 -41t-15 -56v0z" />
    <glyph glyph-name="mercury" unicode="&#x263f;" horiz-adv-x="384" 
d="M72 441q11 8 24 7v0q12 -2 21 -12q28 -35 75 -36q47 1 75 36q9 10 21 12q13 1 24 -7q10 -9 12 -21q1 -13 -7 -24q-12 -15 -26 -26q35 -24 56 -62t21 -84q-1 -68 -44 -116q-42 -48 -108 -58v-26h32q22 -2 24 -24q-2 -22 -24 -24h-32v-16q-2 -22 -24 -24q-22 2 -24 24v16
h-32q-22 2 -24 24q2 22 24 24h32v26q-66 10 -108 58q-43 48 -44 116q0 46 21 84t57 62q-15 11 -27 26q-8 11 -7 24q2 12 12 21v0zM80 224q0 -30 15 -56v0q15 -26 41 -41t56 -15t56 15t41 41t15 56t-15 56t-41 41t-56 15t-56 -15t-41 -41t-15 -56v0z" />
    <glyph glyph-name="venus" unicode="&#xf221;" horiz-adv-x="384" 
d="M80 272q0 30 15 56v0q15 26 41 41t56 15t56 -15t41 -41t15 -56t-15 -56t-41 -41t-56 -15t-56 15t-41 41t-15 56v0zM224 99q63 12 103 60v0q40 47 41 113q-2 75 -52 124q-49 50 -124 52q-75 -2 -124 -52q-50 -49 -52 -124q1 -66 41 -113q40 -48 103 -60v-35h-32
q-14 0 -23 -9t-9 -23t9 -23t23 -9h32v-32q0 -14 9 -23t23 -9t23 9t9 23v32h32q14 0 23 9t9 23t-9 23t-23 9h-32v35v0z" />
    <glyph glyph-name="venus" unicode="&#x2640;" horiz-adv-x="384" 
d="M80 272q0 30 15 56v0q15 26 41 41t56 15t56 -15t41 -41t15 -56t-15 -56t-41 -41t-56 -15t-56 15t-41 41t-15 56v0zM224 99q63 12 103 60v0q40 47 41 113q-2 75 -52 124q-49 50 -124 52q-75 -2 -124 -52q-50 -49 -52 -124q1 -66 41 -113q40 -48 103 -60v-35h-32
q-14 0 -23 -9t-9 -23t9 -23t23 -9h32v-32q0 -14 9 -23t23 -9t23 9t9 23v32h32q14 0 23 9t9 23t-9 23t-23 9h-32v35v0z" />
    <glyph glyph-name="mars" unicode="&#xf222;" horiz-adv-x="448" 
d="M290 401q6 14 22 15h112q22 -2 24 -24v-112q-1 -16 -15 -22t-26 5l-33 33l-53 -52q30 -44 31 -100q-2 -75 -52 -124q-49 -50 -124 -52q-75 2 -124 52q-50 49 -52 124q2 75 52 124q49 50 124 52q56 -1 100 -31l52 53l-33 33q-11 12 -5 26v0zM400 368v0v0v0v0zM176 32
q30 0 56 15v0q26 15 41 41t15 56t-15 56t-41 41t-56 15t-56 -15t-41 -41t-15 -56t15 -56t41 -41t56 -15v0z" />
    <glyph glyph-name="mars" unicode="&#x2642;" horiz-adv-x="448" 
d="M290 401q6 14 22 15h112q22 -2 24 -24v-112q-1 -16 -15 -22t-26 5l-33 33l-53 -52q30 -44 31 -100q-2 -75 -52 -124q-49 -50 -124 -52q-75 2 -124 52q-50 49 -52 124q2 75 52 124q49 50 124 52q56 -1 100 -31l52 53l-33 33q-11 12 -5 26v0zM400 368v0v0v0v0zM176 32
q30 0 56 15v0q26 15 41 41t15 56t-15 56t-41 41t-56 15t-56 -15t-41 -41t-15 -56t15 -56t41 -41t56 -15v0z" />
    <glyph glyph-name="chess-king" unicode="&#xf43f;" horiz-adv-x="448" 
d="M224 448q14 0 23 -9v0q9 -9 9 -23v-16h16q14 0 23 -9t9 -23t-9 -23t-23 -9h-16v-48h152q17 0 28 -12q12 -11 12 -28q0 -8 -3 -15l-77 -185h-288l-77 185q-3 7 -3 15q0 17 12 28q11 12 28 12h152v48h-16q-14 0 -23 9t-9 23t9 23t23 9h16v16q0 14 9 23t23 9v0zM39 -25
l41 41h288l41 -41q7 -7 7 -16q-2 -21 -23 -23h-338q-21 2 -23 23q0 9 7 16v0z" />
    <glyph glyph-name="chess-king" unicode="&#x265a;" horiz-adv-x="448" 
d="M224 448q14 0 23 -9v0q9 -9 9 -23v-16h16q14 0 23 -9t9 -23t-9 -23t-23 -9h-16v-48h152q17 0 28 -12q12 -11 12 -28q0 -8 -3 -15l-77 -185h-288l-77 185q-3 7 -3 15q0 17 12 28q11 12 28 12h152v48h-16q-14 0 -23 9t-9 23t9 23t23 9h16v16q0 14 9 23t23 9v0zM39 -25
l41 41h288l41 -41q7 -7 7 -16q-2 -21 -23 -23h-338q-21 2 -23 23q0 9 7 16v0z" />
    <glyph glyph-name="chess-queen" unicode="&#xf445;" 
d="M256 448q32 -1 48 -28q16 -28 0 -56q-16 -27 -48 -28q-32 1 -48 28q-16 28 0 56q16 27 48 28v0zM134 304q6 22 30 24q20 -1 28 -17q20 -37 64 -39q44 2 64 39q8 16 28 17q24 -2 30 -24q6 -21 22 -34q17 -14 40 -14q16 0 30 7q13 7 27 -1q10 -6 13 -17q2 -10 -3 -21
l-107 -176h-16h-40h-176h-40h-16l-107 176q-5 11 -3 21q3 11 13 17q14 8 27 1q14 -7 30 -7q23 0 40 14q16 13 22 34v0zM256 224v0v0v0v0zM112 16h288l41 -41q7 -7 7 -16q-2 -21 -23 -23h-338q-21 2 -23 23q0 9 7 16l41 41v0z" />
    <glyph glyph-name="chess-queen" unicode="&#x265b;" 
d="M256 448q32 -1 48 -28q16 -28 0 -56q-16 -27 -48 -28q-32 1 -48 28q-16 28 0 56q16 27 48 28v0zM134 304q6 22 30 24q20 -1 28 -17q20 -37 64 -39q44 2 64 39q8 16 28 17q24 -2 30 -24q6 -21 22 -34q17 -14 40 -14q16 0 30 7q13 7 27 -1q10 -6 13 -17q2 -10 -3 -21
l-107 -176h-16h-40h-176h-40h-16l-107 176q-5 11 -3 21q3 11 13 17q14 8 27 1q14 -7 30 -7q23 0 40 14q16 13 22 34v0zM256 224v0v0v0v0zM112 16h288l41 -41q7 -7 7 -16q-2 -21 -23 -23h-338q-21 2 -23 23q0 9 7 16l41 41v0z" />
    <glyph glyph-name="chess-rook" unicode="&#xf447;" horiz-adv-x="448" 
d="M32 256v144q1 15 16 16h64q15 -1 16 -16v-40q1 -7 8 -8h32q7 1 8 8v40q1 15 16 16h64q15 -1 16 -16v-40q1 -7 8 -8h32q7 1 8 8v40q1 15 16 16h64q15 -1 16 -16v-144q0 -16 -13 -26l-51 -38l16 -144h-288l16 144l-51 38q-13 10 -13 26v0zM208 160h32q15 1 16 16v48
q0 14 -9 23t-23 9t-23 -9t-9 -23v-48q1 -15 16 -16v0zM23 -25l41 41h320l41 -41q7 -7 7 -16q-2 -21 -23 -23h-370q-21 2 -23 23q0 9 7 16v0z" />
    <glyph glyph-name="chess-rook" unicode="&#x265c;" horiz-adv-x="448" 
d="M32 256v144q1 15 16 16h64q15 -1 16 -16v-40q1 -7 8 -8h32q7 1 8 8v40q1 15 16 16h64q15 -1 16 -16v-40q1 -7 8 -8h32q7 1 8 8v40q1 15 16 16h64q15 -1 16 -16v-144q0 -16 -13 -26l-51 -38l16 -144h-288l16 144l-51 38q-13 10 -13 26v0zM208 160h32q15 1 16 16v48
q0 14 -9 23t-23 9t-23 -9t-9 -23v-48q1 -15 16 -16v0zM23 -25l41 41h320l41 -41q7 -7 7 -16q-2 -21 -23 -23h-370q-21 2 -23 23q0 9 7 16v0z" />
    <glyph glyph-name="chess-bishop" unicode="&#xf43a;" horiz-adv-x="320" 
d="M128 448q-14 0 -23 -9v0q-9 -9 -9 -23q2 -26 27 -32q-36 -33 -74 -91q-38 -59 -41 -133q1 -35 19 -55q17 -21 37 -30v-27h192v27q20 9 37 30q18 20 19 55q-1 56 -25 104l-100 -99q-11 -10 -22 0q-10 11 0 22l106 106q-38 58 -74 91q25 6 27 32q0 14 -9 23t-23 9h-64v0z
M48 16l-41 -41q-7 -7 -7 -16q2 -21 23 -23h274q21 2 23 23q0 9 -7 16l-41 41h-224v0z" />
    <glyph glyph-name="chess-bishop" unicode="&#x265d;" horiz-adv-x="320" 
d="M128 448q-14 0 -23 -9v0q-9 -9 -9 -23q2 -26 27 -32q-36 -33 -74 -91q-38 -59 -41 -133q1 -35 19 -55q17 -21 37 -30v-27h192v27q20 9 37 30q18 20 19 55q-1 56 -25 104l-100 -99q-11 -10 -22 0q-10 11 0 22l106 106q-38 58 -74 91q25 6 27 32q0 14 -9 23t-23 9h-64v0z
M48 16l-41 -41q-7 -7 -7 -16q2 -21 23 -23h274q21 2 23 23q0 9 -7 16l-41 41h-224v0z" />
    <glyph glyph-name="chess-knight" unicode="&#xf441;" horiz-adv-x="448" 
d="M96 400l-13 -13q-19 -19 -19 -46v-132q0 -17 14 -27l11 -7q23 -14 48 -3l3 2q4 2 7 5l50 37q11 7 22 0q8 -7 8 -16q-1 -9 -9 -15l-128 -87q-25 -18 -26 -50h320l29 159q3 17 3 34v15q-2 82 -56 136t-136 56h-140q-18 -2 -20 -20q0 -12 11 -18l21 -10v0zM120 332
q2 18 20 20q18 -2 20 -20q-2 -18 -20 -20q-18 2 -20 20v0zM23 -25q-7 -7 -7 -16q2 -21 23 -23h370q21 2 23 23q0 9 -7 16l-41 41h-320l-41 -41v0z" />
    <glyph glyph-name="chess-knight" unicode="&#x265e;" horiz-adv-x="448" 
d="M96 400l-13 -13q-19 -19 -19 -46v-132q0 -17 14 -27l11 -7q23 -14 48 -3l3 2q4 2 7 5l50 37q11 7 22 0q8 -7 8 -16q-1 -9 -9 -15l-128 -87q-25 -18 -26 -50h320l29 159q3 17 3 34v15q-2 82 -56 136t-136 56h-140q-18 -2 -20 -20q0 -12 11 -18l21 -10v0zM120 332
q2 18 20 20q18 -2 20 -20q-2 -18 -20 -20q-18 2 -20 20v0zM23 -25q-7 -7 -7 -16q2 -21 23 -23h370q21 2 23 23q0 9 -7 16l-41 41h-320l-41 -41v0z" />
    <glyph glyph-name="chess-pawn" unicode="&#xf443;" horiz-adv-x="320" 
d="M216 224q22 14 35 37v0q13 23 13 51q-1 44 -30 74q-30 29 -74 30q-44 -1 -74 -30q-29 -30 -30 -74q0 -28 13 -51t36 -37h-9q-14 0 -23 -9t-9 -23q2 -27 29 -32l-13 -112h160l-12 112q26 5 28 32q0 14 -9 23t-23 9h-8v0zM23 -25q-7 -7 -7 -16q2 -21 23 -23h242q21 2 23 23
q0 9 -7 16l-41 41h-192l-41 -41v0z" />
    <glyph glyph-name="chess-pawn" unicode="&#x265f;" horiz-adv-x="320" 
d="M216 224q22 14 35 37v0q13 23 13 51q-1 44 -30 74q-30 29 -74 30q-44 -1 -74 -30q-29 -30 -30 -74q0 -28 13 -51t36 -37h-9q-14 0 -23 -9t-9 -23q2 -27 29 -32l-13 -112h160l-12 112q26 5 28 32q0 14 -9 23t-23 9h-8v0zM23 -25q-7 -7 -7 -16q2 -21 23 -23h242q21 2 23 23
q0 9 -7 16l-41 41h-192l-41 -41v0z" />
    <glyph glyph-name="heart" unicode="&#x1f9e1;" 
d="M48 148l180 -169q12 -11 28 -11t28 11l180 169q47 44 48 109v6q-1 54 -34 92q-33 39 -85 49q-35 5 -68 -5q-32 -10 -57 -35l-12 -12l-12 12q-25 25 -57 35q-33 10 -68 5q-52 -10 -85 -49q-33 -38 -34 -92v-6q1 -65 48 -109v0z" />
    <glyph glyph-name="heart" unicode="&#x1f90e;" 
d="M48 148l180 -169q12 -11 28 -11t28 11l180 169q47 44 48 109v6q-1 54 -34 92q-33 39 -85 49q-35 5 -68 -5q-32 -10 -57 -35l-12 -12l-12 12q-25 25 -57 35q-33 10 -68 5q-52 -10 -85 -49q-33 -38 -34 -92v-6q1 -65 48 -109v0z" />
    <glyph glyph-name="heart" unicode="&#x1f90d;" 
d="M48 148l180 -169q12 -11 28 -11t28 11l180 169q47 44 48 109v6q-1 54 -34 92q-33 39 -85 49q-35 5 -68 -5q-32 -10 -57 -35l-12 -12l-12 12q-25 25 -57 35q-33 10 -68 5q-52 -10 -85 -49q-33 -38 -34 -92v-6q1 -65 48 -109v0z" />
    <glyph glyph-name="heart" unicode="&#x1f5a4;" 
d="M48 148l180 -169q12 -11 28 -11t28 11l180 169q47 44 48 109v6q-1 54 -34 92q-33 39 -85 49q-35 5 -68 -5q-32 -10 -57 -35l-12 -12l-12 12q-25 25 -57 35q-33 10 -68 5q-52 -10 -85 -49q-33 -38 -34 -92v-6q1 -65 48 -109v0z" />
    <glyph glyph-name="heart" unicode="&#x1f49c;" 
d="M48 148l180 -169q12 -11 28 -11t28 11l180 169q47 44 48 109v6q-1 54 -34 92q-33 39 -85 49q-35 5 -68 -5q-32 -10 -57 -35l-12 -12l-12 12q-25 25 -57 35q-33 10 -68 5q-52 -10 -85 -49q-33 -38 -34 -92v-6q1 -65 48 -109v0z" />
    <glyph glyph-name="heart" unicode="&#x1f49b;" 
d="M48 148l180 -169q12 -11 28 -11t28 11l180 169q47 44 48 109v6q-1 54 -34 92q-33 39 -85 49q-35 5 -68 -5q-32 -10 -57 -35l-12 -12l-12 12q-25 25 -57 35q-33 10 -68 5q-52 -10 -85 -49q-33 -38 -34 -92v-6q1 -65 48 -109v0z" />
    <glyph glyph-name="heart" unicode="&#x1f49a;" 
d="M48 148l180 -169q12 -11 28 -11t28 11l180 169q47 44 48 109v6q-1 54 -34 92q-33 39 -85 49q-35 5 -68 -5q-32 -10 -57 -35l-12 -12l-12 12q-25 25 -57 35q-33 10 -68 5q-52 -10 -85 -49q-33 -38 -34 -92v-6q1 -65 48 -109v0z" />
    <glyph glyph-name="heart" unicode="&#x1f499;" 
d="M48 148l180 -169q12 -11 28 -11t28 11l180 169q47 44 48 109v6q-1 54 -34 92q-33 39 -85 49q-35 5 -68 -5q-32 -10 -57 -35l-12 -12l-12 12q-25 25 -57 35q-33 10 -68 5q-52 -10 -85 -49q-33 -38 -34 -92v-6q1 -65 48 -109v0z" />
    <glyph glyph-name="heart" unicode="&#xf08a;" 
d="M48 148l180 -169q12 -11 28 -11t28 11l180 169q47 44 48 109v6q-1 54 -34 92q-33 39 -85 49q-35 5 -68 -5q-32 -10 -57 -35l-12 -12l-12 12q-25 25 -57 35q-33 10 -68 5q-52 -10 -85 -49q-33 -38 -34 -92v-6q1 -65 48 -109v0z" />
    <glyph glyph-name="heart" unicode="&#xf004;" 
d="M48 148l180 -169q12 -11 28 -11t28 11l180 169q47 44 48 109v6q-1 54 -34 92q-33 39 -85 49q-35 5 -68 -5q-32 -10 -57 -35l-12 -12l-12 12q-25 25 -57 35q-33 10 -68 5q-52 -10 -85 -49q-33 -38 -34 -92v-6q1 -65 48 -109v0z" />
    <glyph glyph-name="heart" unicode="&#x2764;" 
d="M48 148l180 -169q12 -11 28 -11t28 11l180 169q47 44 48 109v6q-1 54 -34 92q-33 39 -85 49q-35 5 -68 -5q-32 -10 -57 -35l-12 -12l-12 12q-25 25 -57 35q-33 10 -68 5q-52 -10 -85 -49q-33 -38 -34 -92v-6q1 -65 48 -109v0z" />
    <glyph glyph-name="heart" unicode="&#x2665;" 
d="M48 148l180 -169q12 -11 28 -11t28 11l180 169q47 44 48 109v6q-1 54 -34 92q-33 39 -85 49q-35 5 -68 -5q-32 -10 -57 -35l-12 -12l-12 12q-25 25 -57 35q-33 10 -68 5q-52 -10 -85 -49q-33 -38 -34 -92v-6q1 -65 48 -109v0z" />
    <glyph glyph-name="diamond" unicode="&#xf219;" 
d="M284 436q-12 12 -28 12v0q-16 0 -28 -12l-216 -216q-12 -12 -12 -28t12 -28l216 -216q12 -12 28 -12t28 12l216 216q12 12 12 28t-12 28l-216 216v0z" />
    <glyph glyph-name="diamond" unicode="&#x2666;" 
d="M284 436q-12 12 -28 12v0q-16 0 -28 -12l-216 -216q-12 -12 -12 -28t12 -28l216 -216q12 -12 28 -12t28 12l216 216q12 12 12 28t-12 28l-216 216v0z" />
    <glyph glyph-name="recycle" unicode="&#xf1b8;" 
d="M175 403q29 44 81 45q52 -1 81 -45l39 -62l27 16q14 7 27 -2q11 -10 8 -25l-23 -88q-8 -20 -30 -17l-87 24q-15 4 -18 20q-1 15 12 24l29 16l-38 60q-10 14 -27 15q-17 -1 -27 -15l-17 -28q-8 -11 -20 -14t-24 3q-12 8 -15 20q-3 13 4 25l18 28v0zM430 196q11 7 23 4v0
q13 -3 20 -14l25 -40q14 -23 14 -50q-1 -41 -28 -68t-68 -28h-96v-32q-1 -16 -15 -22t-26 5l-64 64q-14 17 0 34l64 64q12 10 26 5q14 -7 15 -22v-32h96q14 0 23 9t9 23q0 9 -5 17l-24 39q-7 12 -4 24q3 13 15 20v0zM65 227l-29 17q-13 8 -12 24q3 15 18 20l87 23
q22 4 30 -17l23 -87q3 -15 -9 -26q-12 -9 -26 -1l-27 15l-51 -82q-5 -8 -5 -17q0 -14 9 -23t23 -9h32q14 0 23 -9t9 -23t-9 -23t-23 -9h-32q-41 1 -68 28t-28 68q0 28 15 51l50 80v0z" />
    <glyph glyph-name="recycle" unicode="&#x267b;" 
d="M175 403q29 44 81 45q52 -1 81 -45l39 -62l27 16q14 7 27 -2q11 -10 8 -25l-23 -88q-8 -20 -30 -17l-87 24q-15 4 -18 20q-1 15 12 24l29 16l-38 60q-10 14 -27 15q-17 -1 -27 -15l-17 -28q-8 -11 -20 -14t-24 3q-12 8 -15 20q-3 13 4 25l18 28v0zM430 196q11 7 23 4v0
q13 -3 20 -14l25 -40q14 -23 14 -50q-1 -41 -28 -68t-68 -28h-96v-32q-1 -16 -15 -22t-26 5l-64 64q-14 17 0 34l64 64q12 10 26 5q14 -7 15 -22v-32h96q14 0 23 9t9 23q0 9 -5 17l-24 39q-7 12 -4 24q3 13 15 20v0zM65 227l-29 17q-13 8 -12 24q3 15 18 20l87 23
q22 4 30 -17l23 -87q3 -15 -9 -26q-12 -9 -26 -1l-27 15l-51 -82q-5 -8 -5 -17q0 -14 9 -23t23 -9h32q14 0 23 -9t9 -23t-9 -23t-23 -9h-32q-41 1 -68 28t-28 68q0 28 15 51l50 80v0z" />
    <glyph glyph-name="recycle" unicode="&#x267a;" 
d="M175 403q29 44 81 45q52 -1 81 -45l39 -62l27 16q14 7 27 -2q11 -10 8 -25l-23 -88q-8 -20 -30 -17l-87 24q-15 4 -18 20q-1 15 12 24l29 16l-38 60q-10 14 -27 15q-17 -1 -27 -15l-17 -28q-8 -11 -20 -14t-24 3q-12 8 -15 20q-3 13 4 25l18 28v0zM430 196q11 7 23 4v0
q13 -3 20 -14l25 -40q14 -23 14 -50q-1 -41 -28 -68t-68 -28h-96v-32q-1 -16 -15 -22t-26 5l-64 64q-14 17 0 34l64 64q12 10 26 5q14 -7 15 -22v-32h96q14 0 23 9t9 23q0 9 -5 17l-24 39q-7 12 -4 24q3 13 15 20v0zM65 227l-29 17q-13 8 -12 24q3 15 18 20l87 23
q22 4 30 -17l23 -87q3 -15 -9 -26q-12 -9 -26 -1l-27 15l-51 -82q-5 -8 -5 -17q0 -14 9 -23t23 -9h32q14 0 23 -9t9 -23t-9 -23t-23 -9h-32q-41 1 -68 28t-28 68q0 28 15 51l50 80v0z" />
    <glyph glyph-name="recycle" unicode="&#x2672;" 
d="M175 403q29 44 81 45q52 -1 81 -45l39 -62l27 16q14 7 27 -2q11 -10 8 -25l-23 -88q-8 -20 -30 -17l-87 24q-15 4 -18 20q-1 15 12 24l29 16l-38 60q-10 14 -27 15q-17 -1 -27 -15l-17 -28q-8 -11 -20 -14t-24 3q-12 8 -15 20q-3 13 4 25l18 28v0zM430 196q11 7 23 4v0
q13 -3 20 -14l25 -40q14 -23 14 -50q-1 -41 -28 -68t-68 -28h-96v-32q-1 -16 -15 -22t-26 5l-64 64q-14 17 0 34l64 64q12 10 26 5q14 -7 15 -22v-32h96q14 0 23 9t9 23q0 9 -5 17l-24 39q-7 12 -4 24q3 13 15 20v0zM65 227l-29 17q-13 8 -12 24q3 15 18 20l87 23
q22 4 30 -17l23 -87q3 -15 -9 -26q-12 -9 -26 -1l-27 15l-51 -82q-5 -8 -5 -17q0 -14 9 -23t23 -9h32q14 0 23 -9t9 -23t-9 -23t-23 -9h-32q-41 1 -68 28t-28 68q0 28 15 51l50 80v0z" />
    <glyph glyph-name="dice-one" unicode="&#xf525;" horiz-adv-x="448" 
d="M64 416q-27 -1 -45 -19v0q-18 -18 -19 -45v-320q1 -27 19 -45t45 -19h320q27 1 45 19t19 45v320q-1 27 -19 45t-45 19h-320v0zM224 224q14 0 23 -9v0q9 -9 9 -23t-9 -23t-23 -9t-23 9t-9 23t9 23t23 9v0z" />
    <glyph glyph-name="dice-one" unicode="&#x2680;" horiz-adv-x="448" 
d="M64 416q-27 -1 -45 -19v0q-18 -18 -19 -45v-320q1 -27 19 -45t45 -19h320q27 1 45 19t19 45v320q-1 27 -19 45t-45 19h-320v0zM224 224q14 0 23 -9v0q9 -9 9 -23t-9 -23t-23 -9t-23 9t-9 23t9 23t23 9v0z" />
    <glyph glyph-name="dice-two" unicode="&#xf528;" horiz-adv-x="448" 
d="M0 352q1 27 19 45v0q18 18 45 19h320q27 -1 45 -19t19 -45v-320q-1 -27 -19 -45t-45 -19h-320q-27 1 -45 19t-19 45v320v0zM352 96q0 14 -9 23v0q-9 9 -23 9t-23 -9t-9 -23t9 -23t23 -9t23 9t9 23v0zM128 256q14 0 23 9v0q9 9 9 23t-9 23t-23 9t-23 -9t-9 -23t9 -23
t23 -9v0z" />
    <glyph glyph-name="dice-two" unicode="&#x2681;" horiz-adv-x="448" 
d="M0 352q1 27 19 45v0q18 18 45 19h320q27 -1 45 -19t19 -45v-320q-1 -27 -19 -45t-45 -19h-320q-27 1 -45 19t-19 45v320v0zM352 96q0 14 -9 23v0q-9 9 -23 9t-23 -9t-9 -23t9 -23t23 -9t23 9t9 23v0zM128 256q14 0 23 9v0q9 9 9 23t-9 23t-23 9t-23 -9t-9 -23t9 -23
t23 -9v0z" />
    <glyph glyph-name="dice-three" unicode="&#xf527;" horiz-adv-x="448" 
d="M64 416q-27 -1 -45 -19v0q-18 -18 -19 -45v-320q1 -27 19 -45t45 -19h320q27 1 45 19t19 45v320q-1 27 -19 45t-45 19h-320v0zM128 320q14 0 23 -9v0q9 -9 9 -23t-9 -23t-23 -9t-23 9t-9 23t9 23t23 9v0zM192 192q0 14 9 23v0q9 9 23 9t23 -9t9 -23t-9 -23t-23 -9t-23 9
t-9 23v0zM320 128q14 0 23 -9v0q9 -9 9 -23t-9 -23t-23 -9t-23 9t-9 23t9 23t23 9v0z" />
    <glyph glyph-name="dice-three" unicode="&#x2682;" horiz-adv-x="448" 
d="M64 416q-27 -1 -45 -19v0q-18 -18 -19 -45v-320q1 -27 19 -45t45 -19h320q27 1 45 19t19 45v320q-1 27 -19 45t-45 19h-320v0zM128 320q14 0 23 -9v0q9 -9 9 -23t-9 -23t-23 -9t-23 9t-9 23t9 23t23 9v0zM192 192q0 14 9 23v0q9 9 23 9t23 -9t9 -23t-9 -23t-23 -9t-23 9
t-9 23v0zM320 128q14 0 23 -9v0q9 -9 9 -23t-9 -23t-23 -9t-23 9t-9 23t9 23t23 9v0z" />
    <glyph glyph-name="dice-four" unicode="&#xf524;" horiz-adv-x="448" 
d="M0 352q1 27 19 45v0q18 18 45 19h320q27 -1 45 -19t19 -45v-320q-1 -27 -19 -45t-45 -19h-320q-27 1 -45 19t-19 45v320v0zM160 288q0 14 -9 23v0q-9 9 -23 9t-23 -9t-9 -23t9 -23t23 -9t23 9t9 23v0zM128 64q14 0 23 9v0q9 9 9 23t-9 23t-23 9t-23 -9t-9 -23t9 -23
t23 -9v0zM352 288q0 14 -9 23v0q-9 9 -23 9t-23 -9t-9 -23t9 -23t23 -9t23 9t9 23v0zM320 64q14 0 23 9v0q9 9 9 23t-9 23t-23 9t-23 -9t-9 -23t9 -23t23 -9v0z" />
    <glyph glyph-name="dice-four" unicode="&#x2683;" horiz-adv-x="448" 
d="M0 352q1 27 19 45v0q18 18 45 19h320q27 -1 45 -19t19 -45v-320q-1 -27 -19 -45t-45 -19h-320q-27 1 -45 19t-19 45v320v0zM160 288q0 14 -9 23v0q-9 9 -23 9t-23 -9t-9 -23t9 -23t23 -9t23 9t9 23v0zM128 64q14 0 23 9v0q9 9 9 23t-9 23t-23 9t-23 -9t-9 -23t9 -23
t23 -9v0zM352 288q0 14 -9 23v0q-9 9 -23 9t-23 -9t-9 -23t9 -23t23 -9t23 9t9 23v0zM320 64q14 0 23 9v0q9 9 9 23t-9 23t-23 9t-23 -9t-9 -23t9 -23t23 -9v0z" />
    <glyph glyph-name="dice-five" unicode="&#xf523;" horiz-adv-x="448" 
d="M64 416q-27 -1 -45 -19v0q-18 -18 -19 -45v-320q1 -27 19 -45t45 -19h320q27 1 45 19t19 45v320q-1 27 -19 45t-45 19h-320v0zM128 320q14 0 23 -9v0q9 -9 9 -23t-9 -23t-23 -9t-23 9t-9 23t9 23t23 9v0zM96 96q0 14 9 23v0q9 9 23 9t23 -9t9 -23t-9 -23t-23 -9t-23 9
t-9 23v0zM224 224q14 0 23 -9v0q9 -9 9 -23t-9 -23t-23 -9t-23 9t-9 23t9 23t23 9v0zM288 288q0 14 9 23v0q9 9 23 9t23 -9t9 -23t-9 -23t-23 -9t-23 9t-9 23v0zM320 128q14 0 23 -9v0q9 -9 9 -23t-9 -23t-23 -9t-23 9t-9 23t9 23t23 9v0z" />
    <glyph glyph-name="dice-five" unicode="&#x2684;" horiz-adv-x="448" 
d="M64 416q-27 -1 -45 -19v0q-18 -18 -19 -45v-320q1 -27 19 -45t45 -19h320q27 1 45 19t19 45v320q-1 27 -19 45t-45 19h-320v0zM128 320q14 0 23 -9v0q9 -9 9 -23t-9 -23t-23 -9t-23 9t-9 23t9 23t23 9v0zM96 96q0 14 9 23v0q9 9 23 9t23 -9t9 -23t-9 -23t-23 -9t-23 9
t-9 23v0zM224 224q14 0 23 -9v0q9 -9 9 -23t-9 -23t-23 -9t-23 9t-9 23t9 23t23 9v0zM288 288q0 14 9 23v0q9 9 23 9t23 -9t9 -23t-9 -23t-23 -9t-23 9t-9 23v0zM320 128q14 0 23 -9v0q9 -9 9 -23t-9 -23t-23 -9t-23 9t-9 23t9 23t23 9v0z" />
    <glyph glyph-name="dice-six" unicode="&#xf526;" horiz-adv-x="448" 
d="M0 352q1 27 19 45v0q18 18 45 19h320q27 -1 45 -19t19 -45v-320q-1 -27 -19 -45t-45 -19h-320q-27 1 -45 19t-19 45v320v0zM160 288q0 14 -9 23v0q-9 9 -23 9t-23 -9t-9 -23t9 -23t23 -9t23 9t9 23v0zM128 160q14 0 23 9v0q9 9 9 23t-9 23t-23 9t-23 -9t-9 -23t9 -23
t23 -9v0zM160 96q0 14 -9 23v0q-9 9 -23 9t-23 -9t-9 -23t9 -23t23 -9t23 9t9 23v0zM320 256q14 0 23 9v0q9 9 9 23t-9 23t-23 9t-23 -9t-9 -23t9 -23t23 -9v0zM352 192q0 14 -9 23v0q-9 9 -23 9t-23 -9t-9 -23t9 -23t23 -9t23 9t9 23v0zM320 64q14 0 23 9v0q9 9 9 23t-9 23
t-23 9t-23 -9t-9 -23t9 -23t23 -9v0z" />
    <glyph glyph-name="dice-six" unicode="&#x2685;" horiz-adv-x="448" 
d="M0 352q1 27 19 45v0q18 18 45 19h320q27 -1 45 -19t19 -45v-320q-1 -27 -19 -45t-45 -19h-320q-27 1 -45 19t-19 45v320v0zM160 288q0 14 -9 23v0q-9 9 -23 9t-23 -9t-9 -23t9 -23t23 -9t23 9t9 23v0zM128 160q14 0 23 9v0q9 9 9 23t-9 23t-23 9t-23 -9t-9 -23t9 -23
t23 -9v0zM160 96q0 14 -9 23v0q-9 9 -23 9t-23 -9t-9 -23t9 -23t23 -9t23 9t9 23v0zM320 256q14 0 23 9v0q9 9 9 23t-9 23t-23 9t-23 -9t-9 -23t9 -23t23 -9v0zM352 192q0 14 -9 23v0q-9 9 -23 9t-23 -9t-9 -23t9 -23t23 -9t23 9t9 23v0zM320 64q14 0 23 9v0q9 9 9 23t-9 23
t-23 9t-23 -9t-9 -23t9 -23t23 -9v0z" />
    <glyph glyph-name="anchor" unicode="&#xf13d;" horiz-adv-x="576" 
d="M320 352q0 -14 -9 -23v0q-9 -9 -23 -9t-23 9t-9 23t9 23t23 9t23 -9t9 -23v0zM341 272q41 28 43 80q-1 41 -28 68t-68 28q-41 -1 -68 -28t-28 -68q2 -52 43 -80h-11q-14 0 -23 -9t-9 -23t9 -23t23 -9h32v-208h-48q-41 1 -68 28t-28 68v6l7 -7q17 -14 34 0q14 17 0 34
l-56 56q-17 14 -34 0l-56 -56q-14 -17 0 -34q17 -14 34 0l7 7v-6q2 -68 47 -113t113 -47h80h80q68 2 113 47t47 113v6l7 -7q17 -14 34 0q14 17 0 34l-56 56q-17 14 -34 0l-56 -56q-14 -17 0 -34q17 -14 34 0l7 7v-6q-1 -41 -28 -68t-68 -28h-48v208h32q14 0 23 9t9 23t-9 23
t-23 9h-11v0z" />
    <glyph glyph-name="anchor" unicode="&#x2693;" horiz-adv-x="576" 
d="M320 352q0 -14 -9 -23v0q-9 -9 -23 -9t-23 9t-9 23t9 23t23 9t23 -9t9 -23v0zM341 272q41 28 43 80q-1 41 -28 68t-68 28q-41 -1 -68 -28t-28 -68q2 -52 43 -80h-11q-14 0 -23 -9t-9 -23t9 -23t23 -9h32v-208h-48q-41 1 -68 28t-28 68v6l7 -7q17 -14 34 0q14 17 0 34
l-56 56q-17 14 -34 0l-56 -56q-14 -17 0 -34q17 -14 34 0l7 7v-6q2 -68 47 -113t113 -47h80h80q68 2 113 47t47 113v6l7 -7q17 -14 34 0q14 17 0 34l-56 56q-17 14 -34 0l-56 -56q-14 -17 0 -34q17 -14 34 0l7 7v-6q-1 -41 -28 -68t-68 -28h-48v208h32q14 0 23 9t9 23t-9 23
t-23 9h-11v0z" />
    <glyph glyph-name="scale-balanced" unicode="&#xf24e;" horiz-adv-x="640" 
d="M384 416h128q14 0 23 -9t9 -23t-9 -23t-23 -9h-114q-9 -40 -46 -57v-295h160q14 0 23 -9t9 -23t-9 -23t-23 -9h-192h-192q-14 0 -23 9t-9 23t9 23t23 9h160v295q-37 17 -46 57h-114q-14 0 -23 9t-9 23t9 23t23 9h128q23 31 64 32q41 -1 64 -32v0zM440 128h144l-72 124
l-72 -124v0zM512 32q-48 1 -83 23v0q-34 22 -43 56q-3 17 7 32l95 163q8 14 24 14q16 -1 24 -14l95 -163q10 -15 7 -32q-9 -34 -43 -56q-35 -22 -83 -23v0zM127 252l-73 -124h145l-72 124v0zM1 111q-3 17 7 32l95 163q8 14 24 14q16 -1 24 -14l95 -163q10 -15 7 -32
q-9 -34 -44 -56q-34 -22 -82 -23q-48 1 -83 23q-34 22 -43 56v0z" />
    <glyph glyph-name="scale-balanced" unicode="&#x2696;" horiz-adv-x="640" 
d="M384 416h128q14 0 23 -9t9 -23t-9 -23t-23 -9h-114q-9 -40 -46 -57v-295h160q14 0 23 -9t9 -23t-9 -23t-23 -9h-192h-192q-14 0 -23 9t-9 23t9 23t23 9h160v295q-37 17 -46 57h-114q-14 0 -23 9t-9 23t9 23t23 9h128q23 31 64 32q41 -1 64 -32v0zM440 128h144l-72 124
l-72 -124v0zM512 32q-48 1 -83 23v0q-34 22 -43 56q-3 17 7 32l95 163q8 14 24 14q16 -1 24 -14l95 -163q10 -15 7 -32q-9 -34 -43 -56q-35 -22 -83 -23v0zM127 252l-73 -124h145l-72 124v0zM1 111q-3 17 7 32l95 163q8 14 24 14q16 -1 24 -14l95 -163q10 -15 7 -32
q-9 -34 -44 -56q-34 -22 -82 -23q-48 1 -83 23q-34 22 -43 56v0z" />
    <glyph glyph-name="gear" unicode="&#xf013;" 
d="M496 281q4 -14 -6 -24l-44 -40q2 -12 2 -25t-2 -25l44 -40q10 -10 6 -24q-7 -18 -16 -35l-5 -8q-10 -16 -22 -31q-10 -11 -24 -7l-56 18q-20 -16 -44 -25l-12 -58q-4 -14 -19 -17q-20 -4 -42 -4t-43 4q-14 3 -18 17l-12 58q-24 9 -44 25l-56 -18q-14 -4 -24 7
q-13 15 -22 31l-5 8q-9 17 -16 34q-4 15 6 25l44 39q-2 13 -2 26t2 25l-44 40q-10 10 -6 24q7 18 16 35l5 8q9 16 22 31q10 11 24 7l56 -18q20 16 44 26l12 57q4 14 19 17q20 4 42 4t43 -4q14 -3 18 -17l12 -57q24 -10 44 -26l56 18q14 4 24 -7q13 -15 23 -31l4 -8
q9 -17 16 -35v0zM256 112q45 1 69 40q22 40 0 80q-24 39 -69 40q-45 -1 -69 -40q-22 -40 0 -80q24 -39 69 -40v0z" />
    <glyph glyph-name="gear" unicode="&#x2699;" 
d="M496 281q4 -14 -6 -24l-44 -40q2 -12 2 -25t-2 -25l44 -40q10 -10 6 -24q-7 -18 -16 -35l-5 -8q-10 -16 -22 -31q-10 -11 -24 -7l-56 18q-20 -16 -44 -25l-12 -58q-4 -14 -19 -17q-20 -4 -42 -4t-43 4q-14 3 -18 17l-12 58q-24 9 -44 25l-56 -18q-14 -4 -24 7
q-13 15 -22 31l-5 8q-9 17 -16 34q-4 15 6 25l44 39q-2 13 -2 26t2 25l-44 40q-10 10 -6 24q7 18 16 35l5 8q9 16 22 31q10 11 24 7l56 -18q20 16 44 26l12 57q4 14 19 17q20 4 42 4t43 -4q14 -3 18 -17l12 -57q24 -10 44 -26l56 18q14 4 24 -7q13 -15 23 -31l4 -8
q9 -17 16 -35v0zM256 112q45 1 69 40q22 40 0 80q-24 39 -69 40q-45 -1 -69 -40q-22 -40 0 -80q24 -39 69 -40v0z" />
    <glyph glyph-name="atom" unicode="&#xf5d2;" 
d="M256 49q-18 -8 -35 -13q13 -25 22 -31q10 -6 13 -5q3 -1 13 5q9 6 22 31q-17 6 -35 13v0zM446 192q25 -34 32 -67v0q7 -33 -8 -61q-34 -53 -116 -43q-16 -40 -41 -62q-25 -23 -57 -23t-57 23q-25 22 -41 62q-82 -10 -116 43q-15 28 -8 61t32 67q-25 34 -32 67t8 61
q34 53 116 43q16 40 41 62q25 23 57 23t57 -23q25 -22 41 -62q82 10 116 -43q15 -28 8 -61t-32 -67v0zM380 125q-2 -22 -6 -42q23 0 31 5q8 4 9 7q2 3 2 14q-1 12 -14 34q-10 -9 -22 -18v0zM374 300q4 -19 6 -41q12 -9 22 -18q13 22 14 34q0 11 -2 14q-1 3 -9 7q-8 5 -31 4
v0zM291 348q-13 25 -22 31v0q-10 6 -13 5q-3 1 -13 -5q-9 -6 -22 -31q17 -6 35 -13q18 8 35 13v0zM132 259q2 22 7 42q-24 0 -32 -5q-8 -4 -9 -7q-2 -3 -2 -14q1 -12 14 -34l22 18v0zM110 143q-13 -22 -14 -34v0q0 -11 2 -14q1 -3 9 -7q8 -5 32 -5q-5 20 -7 42q-12 9 -22 18
v0zM336 192q-1 45 -40 69q-40 22 -80 0q-39 -24 -40 -69q1 -45 40 -69q40 -22 80 0q39 24 40 69v0zM256 224q14 0 23 -9v0q9 -9 9 -23t-9 -23t-23 -9t-23 9t-9 23t9 23t23 9v0z" />
    <glyph glyph-name="atom" unicode="&#x269b;" 
d="M256 49q-18 -8 -35 -13q13 -25 22 -31q10 -6 13 -5q3 -1 13 5q9 6 22 31q-17 6 -35 13v0zM446 192q25 -34 32 -67v0q7 -33 -8 -61q-34 -53 -116 -43q-16 -40 -41 -62q-25 -23 -57 -23t-57 23q-25 22 -41 62q-82 -10 -116 43q-15 28 -8 61t32 67q-25 34 -32 67t8 61
q34 53 116 43q16 40 41 62q25 23 57 23t57 -23q25 -22 41 -62q82 10 116 -43q15 -28 8 -61t-32 -67v0zM380 125q-2 -22 -6 -42q23 0 31 5q8 4 9 7q2 3 2 14q-1 12 -14 34q-10 -9 -22 -18v0zM374 300q4 -19 6 -41q12 -9 22 -18q13 22 14 34q0 11 -2 14q-1 3 -9 7q-8 5 -31 4
v0zM291 348q-13 25 -22 31v0q-10 6 -13 5q-3 1 -13 -5q-9 -6 -22 -31q17 -6 35 -13q18 8 35 13v0zM132 259q2 22 7 42q-24 0 -32 -5q-8 -4 -9 -7q-2 -3 -2 -14q1 -12 14 -34l22 18v0zM110 143q-13 -22 -14 -34v0q0 -11 2 -14q1 -3 9 -7q8 -5 32 -5q-5 20 -7 42q-12 9 -22 18
v0zM336 192q-1 45 -40 69q-40 22 -80 0q-39 -24 -40 -69q1 -45 40 -69q40 -22 80 0q39 24 40 69v0zM256 224q14 0 23 -9v0q9 -9 9 -23t-9 -23t-23 -9t-23 9t-9 23t9 23t23 9v0z" />
    <glyph glyph-name="triangle-exclamation" unicode="&#xf071;" 
d="M256 416q23 -1 35 -20l216 -368q10 -20 0 -40q-12 -19 -35 -20h-432q-23 1 -35 20q-10 20 0 40l217 368q12 19 34 20v0zM256 288q-22 -2 -24 -24v-112q2 -22 24 -24q22 2 24 24v112q-2 22 -24 24v0zM288 64q0 14 -9 23v0q-9 9 -23 9t-23 -9t-9 -23t9 -23t23 -9t23 9t9 23
v0z" />
    <glyph glyph-name="triangle-exclamation" unicode="&#x26a0;" 
d="M256 416q23 -1 35 -20l216 -368q10 -20 0 -40q-12 -19 -35 -20h-432q-23 1 -35 20q-10 20 0 40l217 368q12 19 34 20v0zM256 288q-22 -2 -24 -24v-112q2 -22 24 -24q22 2 24 24v112q-2 22 -24 24v0zM288 64q0 14 -9 23v0q-9 9 -23 9t-23 -9t-9 -23t9 -23t23 -9t23 9t9 23
v0z" />
    <glyph glyph-name="bolt" unicode="&#xf0e7;" horiz-adv-x="448" 
d="M349 403q9 23 -10 39q-21 13 -40 -2l-256 -224q-16 -15 -9 -35q9 -20 30 -21h112l-77 -179q-9 -23 10 -39q21 -13 40 2l256 224q16 15 9 35q-8 20 -30 21h-111l76 179v0z" />
    <glyph glyph-name="bolt" unicode="&#x26a1;" horiz-adv-x="448" 
d="M349 403q9 23 -10 39q-21 13 -40 -2l-256 -224q-16 -15 -9 -35q9 -20 30 -21h112l-77 -179q-9 -23 10 -39q21 -13 40 2l256 224q16 15 9 35q-8 20 -30 21h-111l76 179v0z" />
    <glyph glyph-name="venus-double" unicode="&#xf226;" horiz-adv-x="640" 
d="M192 160q30 0 56 15v0q26 15 41 41t15 56t-15 56t-41 41t-56 15t-56 -15t-41 -41t-15 -56t15 -56t41 -41t56 -15v0zM368 272q-1 -66 -41 -113v0q-40 -48 -103 -60v-35h32q14 0 23 -9t9 -23t-9 -23t-23 -9h-32v-32q0 -14 -9 -23t-23 -9t-23 9t-9 23v32h-32q-14 0 -23 9
t-9 23t9 23t23 9h32v35q-63 12 -103 60q-40 47 -41 113q2 75 52 124q49 50 124 52q75 -2 124 -52q50 -49 52 -124v0zM344 130q22 23 36 53q29 -22 68 -23q48 1 79 33q32 31 33 79q-1 48 -33 79q-31 32 -79 33q-39 -1 -68 -23q-14 29 -36 53q45 33 104 34q75 -2 124 -52
q50 -49 52 -124q-1 -66 -41 -113q-40 -48 -103 -60v-35h32q14 0 23 -9t9 -23t-9 -23t-23 -9h-32v-32q0 -14 -9 -23t-23 -9t-23 9t-9 23v32h-32q-14 0 -23 9t-9 23t9 23t23 9h32v35q-40 8 -72 31v0z" />
    <glyph glyph-name="venus-double" unicode="&#x26a2;" horiz-adv-x="640" 
d="M192 160q30 0 56 15v0q26 15 41 41t15 56t-15 56t-41 41t-56 15t-56 -15t-41 -41t-15 -56t15 -56t41 -41t56 -15v0zM368 272q-1 -66 -41 -113v0q-40 -48 -103 -60v-35h32q14 0 23 -9t9 -23t-9 -23t-23 -9h-32v-32q0 -14 -9 -23t-23 -9t-23 9t-9 23v32h-32q-14 0 -23 9
t-9 23t9 23t23 9h32v35q-63 12 -103 60q-40 47 -41 113q2 75 52 124q49 50 124 52q75 -2 124 -52q50 -49 52 -124v0zM344 130q22 23 36 53q29 -22 68 -23q48 1 79 33q32 31 33 79q-1 48 -33 79q-31 32 -79 33q-39 -1 -68 -23q-14 29 -36 53q45 33 104 34q75 -2 124 -52
q50 -49 52 -124q-1 -66 -41 -113q-40 -48 -103 -60v-35h32q14 0 23 -9t9 -23t-9 -23t-23 -9h-32v-32q0 -14 -9 -23t-23 -9t-23 9t-9 23v32h-32q-14 0 -23 9t-9 23t9 23t23 9h32v35q-40 8 -72 31v0z" />
    <glyph glyph-name="mars-double" unicode="&#xf227;" horiz-adv-x="640" 
d="M312 416q-16 -1 -22 -15t5 -26l33 -33l-52 -53q-44 30 -100 31q-75 -2 -124 -52q-50 -49 -52 -124q2 -75 52 -124q49 -50 124 -52q75 2 124 52q50 49 52 124q-1 56 -31 100l53 52l33 -33q12 -11 26 -5t15 22v112q-2 22 -24 24h-112v0zM400 368v0v0v0v0zM64 144
q0 30 15 56v0q15 26 41 41t56 15t56 -15t41 -41t15 -56t-15 -56t-41 -41t-56 -15t-56 15t-41 41t-15 56v0zM368 -32q75 2 124 52v0q50 49 52 124q-1 56 -31 100l53 52l33 -33q12 -11 26 -5t15 22v112q-2 22 -24 24h-112q-16 -1 -22 -15q-2 -4 -2 -9v0v0q0 -10 7 -17l33 -33
l-40 -41v-21q-2 -36 -35 -52h-1l-1 -1q36 -32 37 -83q-1 -48 -33 -79q-31 -32 -79 -33q-8 0 -16 1q-19 -31 -48 -53q30 -12 64 -12v0z" />
    <glyph glyph-name="mars-double" unicode="&#x26a3;" horiz-adv-x="640" 
d="M312 416q-16 -1 -22 -15t5 -26l33 -33l-52 -53q-44 30 -100 31q-75 -2 -124 -52q-50 -49 -52 -124q2 -75 52 -124q49 -50 124 -52q75 2 124 52q50 49 52 124q-1 56 -31 100l53 52l33 -33q12 -11 26 -5t15 22v112q-2 22 -24 24h-112v0zM400 368v0v0v0v0zM64 144
q0 30 15 56v0q15 26 41 41t56 15t56 -15t41 -41t15 -56t-15 -56t-41 -41t-56 -15t-56 15t-41 41t-15 56v0zM368 -32q75 2 124 52v0q50 49 52 124q-1 56 -31 100l53 52l33 -33q12 -11 26 -5t15 22v112q-2 22 -24 24h-112q-16 -1 -22 -15q-2 -4 -2 -9v0v0q0 -10 7 -17l33 -33
l-40 -41v-21q-2 -36 -35 -52h-1l-1 -1q36 -32 37 -83q-1 -48 -33 -79q-31 -32 -79 -33q-8 0 -16 1q-19 -31 -48 -53q30 -12 64 -12v0z" />
    <glyph glyph-name="venus-mars" unicode="&#xf228;" horiz-adv-x="640" 
d="M176 160q30 0 56 15v0q26 15 41 41t15 56t-15 56t-41 41t-56 15t-56 -15t-41 -41t-15 -56t15 -56t41 -41t56 -15v0zM352 272q-1 -66 -41 -113v0q-40 -48 -103 -60v-35h32q14 0 23 -9t9 -23t-9 -23t-23 -9h-32v-32q0 -14 -9 -23t-23 -9t-23 9t-9 23v32h-32q-14 0 -23 9
t-9 23t9 23t23 9h32v35q-63 12 -103 60q-40 47 -41 113q2 75 52 124q49 50 124 52q75 -2 124 -52q50 -49 52 -124v0zM272 87q29 16 52 39q31 -29 76 -30q48 1 79 33q32 31 33 79q-1 48 -33 79q-31 32 -79 33q-11 0 -21 -2q-7 32 -24 60q22 6 45 6q56 -1 100 -31l20 21
l-33 33q-11 12 -5 26t22 15h112q22 -2 24 -24v-112q-1 -16 -15 -22t-26 5l-33 33l-21 -20q30 -44 31 -100q-2 -75 -52 -124q-49 -50 -124 -52q-78 2 -128 55v0z" />
    <glyph glyph-name="venus-mars" unicode="&#x26a4;" horiz-adv-x="640" 
d="M176 160q30 0 56 15v0q26 15 41 41t15 56t-15 56t-41 41t-56 15t-56 -15t-41 -41t-15 -56t15 -56t41 -41t56 -15v0zM352 272q-1 -66 -41 -113v0q-40 -48 -103 -60v-35h32q14 0 23 -9t9 -23t-9 -23t-23 -9h-32v-32q0 -14 -9 -23t-23 -9t-23 9t-9 23v32h-32q-14 0 -23 9
t-9 23t9 23t23 9h32v35q-63 12 -103 60q-40 47 -41 113q2 75 52 124q49 50 124 52q75 -2 124 -52q50 -49 52 -124v0zM272 87q29 16 52 39q31 -29 76 -30q48 1 79 33q32 31 33 79q-1 48 -33 79q-31 32 -79 33q-11 0 -21 -2q-7 32 -24 60q22 6 45 6q56 -1 100 -31l20 21
l-33 33q-11 12 -5 26t22 15h112q22 -2 24 -24v-112q-1 -16 -15 -22t-26 5l-33 33l-21 -20q30 -44 31 -100q-2 -75 -52 -124q-49 -50 -124 -52q-78 2 -128 55v0z" />
    <glyph glyph-name="mars-and-venus" unicode="&#xf224;" 
d="M338 433q6 14 22 15h112q22 -2 24 -24v-112q-1 -16 -15 -22t-26 5l-39 39l-25 -25q24 -37 25 -85q-1 -61 -39 -105q-38 -43 -97 -53v-1v-1v0v-1v0v-1v0v0v-1v0v-1v0v0v-1v0v-1v0v0v-1v0v-1v0v0v-1v0v-1v0v0v-1v0v-1v0v0v-1v0v0v-1v0v0v0v-1v0v0v-1v0v0v-1v0v0v0v-1v0v0
v-1v0v0v-1v0v0v0v-1v0v0v-1v0v0v-1v0v0v0v-1h24q22 -2 24 -24q-2 -22 -24 -24h-24v0v0v0v-1v0v0v0v0v-1v0v0v0v0v-1v0v0v0v0v-1v0v0v0v0v-1v0v0v0v0v-1v0v0v0v0v-1v0v0v0v0v-1v0v0v0v0v-1v0v0v0v0v-1v0v0v0v0v-1v0v0v0v0v-1v0v0v0v0v-1v0v0v0v0v-1v0v0v0v0v-1v0v0v0v0v-1v0
v0v0v0v-1v0v0v0v0v-1v0v0v0v0v-1v0v0v0v0v-1v0v0v0v0v0v0v-1v0v0v0v0v0v0v0v0v0v-1v0v0v0v0v0v0v0v0v0v-1v0v0v0v0v0v0v0v0v0v-1v0v0v0v0v0v0v0v0v0v-1v0v0v0v0v0v0v0v0v0v-1v0v0v0v0v0v0v0v0v0v-1v0v0v0v0v0v0v0v0v0v-1v0v0v0v0v0v0v0v0v0v-1v0v0v0v0v0v0v0v0v0v-1v0v0v0v0
v0v0v0v0v0v-1v0v0v0v0v0v0v0v0v0v-1v0v0v0v0v0v0v0v0v0v0v0v0v0v0v0v0v0v0v0v0v0v0v0v0v0v0v0v0v0v0v0v0v0v0v0v0v0v0v0v0v0v0v0v0v0v0v0v0v0v0v0v0v0v0v0h-24h-24v0v0v0v0v0v0v0v0v0v0v0v0v0v0v0v0v0v0v0v0v0v0v0v0v0v0v0v0v0v0v0v0v0v0v0v0v0v0v0v0v0v0v0v0v0v0v0v0v0v0v0
v0v0v0v0v1v0v0v0v0v0v0v0v1v0v0v0v0v0v1v0v0v0v0v0v0v0v0v0v0v0v0v0v0v1v0v0v0v0v0v0v0v0v0v0v0v1v0v0v0v0v0v0v0v0v0v0v1v0v0v0v0v0v0v0v0v0v1v0v0v0v0v0v0v0v0v0v1v0v0v0v0v0v0v0v0v1v0v0v0v0v0v0v0v1v0v0v0v0v0v0v0v1v0v0v0v0v0v0v1v0v0v0v0v0v0v1v0v0v0v0v1v0v0v0v0v0v0
v1v0v0v0v0v0v1v0v0v0v0v1v0v0v0v0v1v0v0v0v0v0v0v0v1v0v0v0v0v0v1v0v0v0v0v1v0v0v0v0v0v1v0v0v0v0v1v0v0v0v0v1v0v0v0v0v1v0v0v0v0v0v1v0v0v0v0v1v0v0v0v0v1v0v0v0v0v1v0v0v0v1v0v0v0v0v1v0v0v0v1v0v0h-24q-22 2 -24 24q2 22 24 24h24v0v1v0v0v0v1v0v0v1v0v0v1v0v0v1v0v1v0
v0v1v0v0v1v0v0v1v0v0v0v1v0v0v1v0v0v1v0v0v1v0v0v1v0v1v0v1v0v1v0v0v1v0v1v0v0v1v0v0v0v1v0v1v0v0v1v0v1v0v0v2q-59 10 -97 53q-38 44 -39 105q2 68 47 113t113 47q61 -1 104 -38l22 22l-39 39q-11 12 -5 26v0zM448 400v0v0v0v0zM256 -40h24q-2 -22 -24 -24q-22 2 -24 24h24
v0zM352 224q0 26 -13 48v0q-13 22 -35 35q-23 13 -48 13t-48 -13q-22 -13 -35 -35t-13 -48t13 -48t35 -35q23 -13 48 -13t48 13q22 13 35 35t13 48v0z" />
    <glyph glyph-name="mars-and-venus" unicode="&#x26a5;" 
d="M338 433q6 14 22 15h112q22 -2 24 -24v-112q-1 -16 -15 -22t-26 5l-39 39l-25 -25q24 -37 25 -85q-1 -61 -39 -105q-38 -43 -97 -53v-1v-1v0v-1v0v-1v0v0v-1v0v-1v0v0v-1v0v-1v0v0v-1v0v-1v0v0v-1v0v-1v0v0v-1v0v-1v0v0v-1v0v0v-1v0v0v0v-1v0v0v-1v0v0v-1v0v0v0v-1v0v0
v-1v0v0v-1v0v0v0v-1v0v0v-1v0v0v-1v0v0v0v-1h24q22 -2 24 -24q-2 -22 -24 -24h-24v0v0v0v-1v0v0v0v0v-1v0v0v0v0v-1v0v0v0v0v-1v0v0v0v0v-1v0v0v0v0v-1v0v0v0v0v-1v0v0v0v0v-1v0v0v0v0v-1v0v0v0v0v-1v0v0v0v0v-1v0v0v0v0v-1v0v0v0v0v-1v0v0v0v0v-1v0v0v0v0v-1v0v0v0v0v-1v0
v0v0v0v-1v0v0v0v0v-1v0v0v0v0v-1v0v0v0v0v-1v0v0v0v0v0v0v-1v0v0v0v0v0v0v0v0v0v-1v0v0v0v0v0v0v0v0v0v-1v0v0v0v0v0v0v0v0v0v-1v0v0v0v0v0v0v0v0v0v-1v0v0v0v0v0v0v0v0v0v-1v0v0v0v0v0v0v0v0v0v-1v0v0v0v0v0v0v0v0v0v-1v0v0v0v0v0v0v0v0v0v-1v0v0v0v0v0v0v0v0v0v-1v0v0v0v0
v0v0v0v0v0v-1v0v0v0v0v0v0v0v0v0v-1v0v0v0v0v0v0v0v0v0v0v0v0v0v0v0v0v0v0v0v0v0v0v0v0v0v0v0v0v0v0v0v0v0v0v0v0v0v0v0v0v0v0v0v0v0v0v0v0v0v0v0v0v0v0v0h-24h-24v0v0v0v0v0v0v0v0v0v0v0v0v0v0v0v0v0v0v0v0v0v0v0v0v0v0v0v0v0v0v0v0v0v0v0v0v0v0v0v0v0v0v0v0v0v0v0v0v0v0v0
v0v0v0v0v1v0v0v0v0v0v0v0v1v0v0v0v0v0v1v0v0v0v0v0v0v0v0v0v0v0v0v0v0v1v0v0v0v0v0v0v0v0v0v0v0v1v0v0v0v0v0v0v0v0v0v0v1v0v0v0v0v0v0v0v0v0v1v0v0v0v0v0v0v0v0v0v1v0v0v0v0v0v0v0v0v1v0v0v0v0v0v0v0v1v0v0v0v0v0v0v0v1v0v0v0v0v0v0v1v0v0v0v0v0v0v1v0v0v0v0v1v0v0v0v0v0v0
v1v0v0v0v0v0v1v0v0v0v0v1v0v0v0v0v1v0v0v0v0v0v0v0v1v0v0v0v0v0v1v0v0v0v0v1v0v0v0v0v0v1v0v0v0v0v1v0v0v0v0v1v0v0v0v0v1v0v0v0v0v0v1v0v0v0v0v1v0v0v0v0v1v0v0v0v0v1v0v0v0v1v0v0v0v0v1v0v0v0v1v0v0h-24q-22 2 -24 24q2 22 24 24h24v0v1v0v0v0v1v0v0v1v0v0v1v0v0v1v0v1v0
v0v1v0v0v1v0v0v1v0v0v0v1v0v0v1v0v0v1v0v0v1v0v0v1v0v1v0v1v0v1v0v0v1v0v1v0v0v1v0v0v0v1v0v1v0v0v1v0v1v0v0v2q-59 10 -97 53q-38 44 -39 105q2 68 47 113t113 47q61 -1 104 -38l22 22l-39 39q-11 12 -5 26v0zM448 400v0v0v0v0zM256 -40h24q-2 -22 -24 -24q-22 2 -24 24h24
v0zM352 224q0 26 -13 48v0q-13 22 -35 35q-23 13 -48 13t-48 -13q-22 -13 -35 -35t-13 -48t13 -48t35 -35q23 -13 48 -13t48 13q22 13 35 35t13 48v0z" />
    <glyph glyph-name="mars-stroke" unicode="&#xf229;" 
d="M376 448q-16 -1 -22 -15t5 -26l33 -33l-22 -22l-25 25q-17 14 -34 0q-14 -17 0 -34l26 -25l-29 -29q-44 30 -100 31q-75 -2 -124 -52q-50 -49 -52 -124q2 -75 52 -124q49 -50 124 -52q75 2 124 52q50 49 52 124q-1 56 -31 100l29 28l25 -25q17 -14 34 0q14 17 0 34
l-25 25l22 22l33 -33q12 -11 26 -5t15 22v112q-2 22 -24 24h-112v0zM464 400v0v0v0v0zM96 144q0 30 15 56v0q15 26 41 41t56 15t56 -15t41 -41t15 -56t-15 -56t-41 -41t-56 -15t-56 15t-41 41t-15 56v0z" />
    <glyph glyph-name="mars-stroke" unicode="&#x26a6;" 
d="M376 448q-16 -1 -22 -15t5 -26l33 -33l-22 -22l-25 25q-17 14 -34 0q-14 -17 0 -34l26 -25l-29 -29q-44 30 -100 31q-75 -2 -124 -52q-50 -49 -52 -124q2 -75 52 -124q49 -50 124 -52q75 2 124 52q50 49 52 124q-1 56 -31 100l29 28l25 -25q17 -14 34 0q14 17 0 34
l-25 25l22 22l33 -33q12 -11 26 -5t15 22v112q-2 22 -24 24h-112v0zM464 400v0v0v0v0zM96 144q0 30 15 56v0q15 26 41 41t56 15t56 -15t41 -41t15 -56t-15 -56t-41 -41t-56 -15t-56 15t-41 41t-15 56v0z" />
    <glyph glyph-name="transgender" unicode="&#xf225;" 
d="M112 448q10 0 15 -10q3 -10 -4 -17l-31 -31l20 -20l7 7q17 14 34 0q14 -17 0 -34l-7 -7l15 -15q41 30 95 31q54 -1 95 -31l69 69l-31 31q-7 7 -4 17q5 9 15 10h96q15 -1 16 -16v-96q0 -11 -10 -15q-10 -3 -17 4l-31 31l-69 -69q30 -41 31 -95q-1 -61 -39 -105
q-38 -43 -97 -53v-18h16q22 -2 24 -24q-2 -22 -24 -24h-16v-8q-2 -22 -24 -24q-22 2 -24 24v8h-16q-22 2 -24 24q2 22 24 24h16v18q-59 10 -97 53q-38 44 -39 105q1 54 31 95l-15 15l-7 -7q-17 -14 -34 0q-14 17 0 34l7 7l-20 20l-31 -31q-7 -7 -17 -4q-9 5 -10 15v96
q1 15 16 16h96v0zM352 192q0 26 -13 48v0q-13 22 -35 35q-23 13 -48 13t-48 -13q-22 -13 -35 -35t-13 -48t13 -48t35 -35q23 -13 48 -13t48 13q22 13 35 35t13 48v0z" />
    <glyph glyph-name="transgender" unicode="&#x26a7;" 
d="M112 448q10 0 15 -10q3 -10 -4 -17l-31 -31l20 -20l7 7q17 14 34 0q14 -17 0 -34l-7 -7l15 -15q41 30 95 31q54 -1 95 -31l69 69l-31 31q-7 7 -4 17q5 9 15 10h96q15 -1 16 -16v-96q0 -11 -10 -15q-10 -3 -17 4l-31 31l-69 -69q30 -41 31 -95q-1 -61 -39 -105
q-38 -43 -97 -53v-18h16q22 -2 24 -24q-2 -22 -24 -24h-16v-8q-2 -22 -24 -24q-22 2 -24 24v8h-16q-22 2 -24 24q2 22 24 24h16v18q-59 10 -97 53q-38 44 -39 105q1 54 31 95l-15 15l-7 -7q-17 -14 -34 0q-14 17 0 34l7 7l-20 20l-31 -31q-7 -7 -17 -4q-9 5 -10 15v96
q1 15 16 16h96v0zM352 192q0 26 -13 48v0q-13 22 -35 35q-23 13 -48 13t-48 -13q-22 -13 -35 -35t-13 -48t13 -48t35 -35q23 -13 48 -13t48 13q22 13 35 35t13 48v0z" />
    <glyph glyph-name="mars-stroke-up" unicode="&#xf22a;" horiz-adv-x="320" 
d="M149 443q11 10 22 0l64 -64q7 -7 4 -17q-5 -9 -15 -10h-40v-24h32q22 -2 24 -24q-2 -22 -24 -24h-32v-24v-2q59 -10 97 -53q38 -44 39 -105q-2 -68 -47 -113t-113 -47q-68 2 -113 47t-47 113q1 61 39 105q38 43 97 53v1v1v24h-32q-22 2 -24 24q2 22 24 24h32v24h-40
q-10 0 -15 10q-3 10 4 17l64 64v0zM256 96q0 26 -13 48v0q-13 22 -35 35q-23 13 -48 13t-48 -13q-22 -13 -35 -35t-13 -48t13 -48t35 -35q23 -13 48 -13t48 13q22 13 35 35t13 48v0z" />
    <glyph glyph-name="mars-stroke-up" unicode="&#x26a8;" horiz-adv-x="320" 
d="M149 443q11 10 22 0l64 -64q7 -7 4 -17q-5 -9 -15 -10h-40v-24h32q22 -2 24 -24q-2 -22 -24 -24h-32v-24v-2q59 -10 97 -53q38 -44 39 -105q-2 -68 -47 -113t-113 -47q-68 2 -113 47t-47 113q1 61 39 105q38 43 97 53v1v1v24h-32q-22 2 -24 24q2 22 24 24h32v24h-40
q-10 0 -15 10q-3 10 4 17l64 64v0zM256 96q0 26 -13 48v0q-13 22 -35 35q-23 13 -48 13t-48 -13q-22 -13 -35 -35t-13 -48t13 -48t35 -35q23 -13 48 -13t48 13q22 13 35 35t13 48v0z" />
    <glyph glyph-name="mars-stroke-right" unicode="&#xf22b;" horiz-adv-x="640" 
d="M208 80q30 0 56 15v0q26 15 41 41t15 56t-15 56t-41 41t-56 15t-56 -15t-41 -41t-15 -56t15 -56t41 -41t56 -15v0zM382 168q-10 -66 -58 -108v0q-48 -43 -116 -44q-75 2 -124 52q-50 49 -52 124q2 75 52 124q49 50 124 52q68 -1 116 -44q48 -42 58 -108h34v56q2 22 24 24
q22 -2 24 -24v-56h32v56q1 16 15 22t26 -5l80 -80q14 -17 0 -34l-80 -80q-12 -10 -26 -5q-14 6 -15 22v56h-32v-56q-2 -22 -24 -24q-22 2 -24 24v56h-34v0z" />
    <glyph glyph-name="mars-stroke-right" unicode="&#x26a9;" horiz-adv-x="640" 
d="M208 80q30 0 56 15v0q26 15 41 41t15 56t-15 56t-41 41t-56 15t-56 -15t-41 -41t-15 -56t15 -56t41 -41t56 -15v0zM382 168q-10 -66 -58 -108v0q-48 -43 -116 -44q-75 2 -124 52q-50 49 -52 124q2 75 52 124q49 50 124 52q68 -1 116 -44q48 -42 58 -108h34v56q2 22 24 24
q22 -2 24 -24v-56h32v56q1 16 15 22t26 -5l80 -80q14 -17 0 -34l-80 -80q-12 -10 -26 -5q-14 6 -15 22v56h-32v-56q-2 -22 -24 -24q-22 2 -24 24v56h-34v0z" />
    <glyph glyph-name="neuter" unicode="&#xf22c;" horiz-adv-x="384" 
d="M80 272q0 30 15 56v0q15 26 41 41t56 15t56 -15t41 -41t15 -56t-15 -56t-41 -41t-56 -15t-56 15t-41 41t-15 56v0zM224 99q63 12 103 60v0q40 47 41 113q-2 75 -52 124q-49 50 -124 52q-75 -2 -124 -52q-50 -49 -52 -124q1 -66 41 -113q40 -48 103 -60v-131q0 -14 9 -23
t23 -9t23 9t9 23v131v0z" />
    <glyph glyph-name="neuter" unicode="&#x26b2;" horiz-adv-x="384" 
d="M80 272q0 30 15 56v0q15 26 41 41t56 15t56 -15t41 -41t15 -56t-15 -56t-41 -41t-56 -15t-56 15t-41 41t-15 56v0zM224 99q63 12 103 60v0q40 47 41 113q-2 75 -52 124q-49 50 -124 52q-75 -2 -124 -52q-50 -49 -52 -124q1 -66 41 -113q40 -48 103 -60v-131q0 -14 9 -23
t23 -9t23 9t9 23v131v0z" />
    <glyph glyph-name="futbol" unicode="&#xf1e3;" 
d="M417 88l-71 5q-8 0 -15 -5q-6 -4 -8 -12l-18 -70q-23 -6 -49 -6t-49 6l-18 70q-2 8 -8 12q-7 5 -15 5l-71 -5q-27 41 -31 94l61 38q7 4 9 12q3 7 0 15l-27 66q32 39 80 58l55 -46q6 -5 14 -5t14 5l55 46q48 -19 80 -58l-27 -66q-3 -8 0 -15q2 -8 9 -12l61 -39
q-4 -52 -31 -93v0zM256 -64q70 1 128 34v0q58 34 94 94q34 61 34 128t-34 128q-36 60 -94 94q-58 33 -128 34q-70 -1 -128 -34q-58 -34 -94 -94q-34 -61 -34 -128t34 -128q36 -60 94 -94q58 -33 128 -34v0zM270 262q-14 9 -28 0l-48 -35q-13 -11 -9 -27l19 -56q6 -16 22 -17
h60q16 1 22 17l19 56q4 16 -9 27l-48 35v0z" />
    <glyph glyph-name="futbol" unicode="&#x26bd;" 
d="M417 88l-71 5q-8 0 -15 -5q-6 -4 -8 -12l-18 -70q-23 -6 -49 -6t-49 6l-18 70q-2 8 -8 12q-7 5 -15 5l-71 -5q-27 41 -31 94l61 38q7 4 9 12q3 7 0 15l-27 66q32 39 80 58l55 -46q6 -5 14 -5t14 5l55 46q48 -19 80 -58l-27 -66q-3 -8 0 -15q2 -8 9 -12l61 -39
q-4 -52 -31 -93v0zM256 -64q70 1 128 34v0q58 34 94 94q34 61 34 128t-34 128q-36 60 -94 94q-58 33 -128 34q-70 -1 -128 -34q-58 -34 -94 -94q-34 -61 -34 -128t34 -128q36 -60 94 -94q58 -33 128 -34v0zM270 262q-14 9 -28 0l-48 -35q-13 -11 -9 -27l19 -56q6 -16 22 -17
h60q16 1 22 17l19 56q4 16 -9 27l-48 35v0z" />
    <glyph glyph-name="baseball" unicode="&#x1f94e;" 
d="M63 225q-7 -1 -15 -1q-23 0 -45 6q14 85 72 143t143 72q6 -22 6 -45q0 -7 -1 -15q1 -14 15 -17q15 0 17 15q1 8 1 17q0 25 -6 48h3h3q72 -1 129 -35q58 -34 92 -92q34 -57 35 -129v-6q-23 6 -48 6q-9 0 -17 -1q-15 -2 -15 -17q3 -15 17 -15q8 1 15 1q24 0 45 -6
q-14 -85 -72 -143t-143 -72q-6 22 -6 45q0 7 1 15q-1 14 -15 17q-15 0 -17 -15q-1 -8 -1 -17q0 -25 6 -48h-3h-3q-72 1 -129 35q-58 34 -92 92q-34 57 -35 129v6q23 -6 48 -6q9 0 17 1q15 2 15 17q-3 14 -17 15v0zM121 240q-12 -7 -8 -21q8 -13 22 -8q69 33 102 102
q5 14 -8 22q-14 4 -21 -8q-28 -59 -87 -87v0zM399 165q-8 13 -22 8q-69 -33 -102 -102q-5 -14 8 -22q14 -4 21 8q28 59 87 87q12 7 7 21h1z" />
    <glyph glyph-name="baseball" unicode="&#xf433;" 
d="M63 225q-7 -1 -15 -1q-23 0 -45 6q14 85 72 143t143 72q6 -22 6 -45q0 -7 -1 -15q1 -14 15 -17q15 0 17 15q1 8 1 17q0 25 -6 48h3h3q72 -1 129 -35q58 -34 92 -92q34 -57 35 -129v-6q-23 6 -48 6q-9 0 -17 -1q-15 -2 -15 -17q3 -15 17 -15q8 1 15 1q24 0 45 -6
q-14 -85 -72 -143t-143 -72q-6 22 -6 45q0 7 1 15q-1 14 -15 17q-15 0 -17 -15q-1 -8 -1 -17q0 -25 6 -48h-3h-3q-72 1 -129 35q-58 34 -92 92q-34 57 -35 129v6q23 -6 48 -6q9 0 17 1q15 2 15 17q-3 14 -17 15v0zM121 240q-12 -7 -8 -21q8 -13 22 -8q69 33 102 102
q5 14 -8 22q-14 4 -21 -8q-28 -59 -87 -87v0zM399 165q-8 13 -22 8q-69 -33 -102 -102q-5 -14 8 -22q14 -4 21 8q28 59 87 87q12 7 7 21h1z" />
    <glyph glyph-name="baseball" unicode="&#x26be;" 
d="M63 225q-7 -1 -15 -1q-23 0 -45 6q14 85 72 143t143 72q6 -22 6 -45q0 -7 -1 -15q1 -14 15 -17q15 0 17 15q1 8 1 17q0 25 -6 48h3h3q72 -1 129 -35q58 -34 92 -92q34 -57 35 -129v-6q-23 6 -48 6q-9 0 -17 -1q-15 -2 -15 -17q3 -15 17 -15q8 1 15 1q24 0 45 -6
q-14 -85 -72 -143t-143 -72q-6 22 -6 45q0 7 1 15q-1 14 -15 17q-15 0 -17 -15q-1 -8 -1 -17q0 -25 6 -48h-3h-3q-72 1 -129 35q-58 34 -92 92q-34 57 -35 129v6q23 -6 48 -6q9 0 17 1q15 2 15 17q-3 14 -17 15v0zM121 240q-12 -7 -8 -21q8 -13 22 -8q69 33 102 102
q5 14 -8 22q-14 4 -21 -8q-28 -59 -87 -87v0zM399 165q-8 13 -22 8q-69 -33 -102 -102q-5 -14 8 -22q14 -4 21 8q28 59 87 87q12 7 7 21h1z" />
    <glyph glyph-name="cloud-sun" unicode="&#xf6c4;" horiz-adv-x="640" 
d="M294 447q8 -4 10 -12l14 -85l85 -14q8 -2 12 -10q3 -8 -2 -15l-38 -55h-7q-35 0 -64 -17v1q-1 41 -28 68t-68 28q-41 -1 -68 -28t-28 -68q1 -41 28 -68t68 -28q12 0 23 3q-27 -14 -46 -39q-18 -24 -23 -56l-25 -17q-7 -5 -15 -2q-8 4 -10 13l-14 84l-85 14q-8 2 -12 10
q-3 8 2 15l50 71l-50 71q-5 7 -2 15q4 8 12 10l85 14l14 85q2 8 10 12q8 3 15 -2l71 -50l71 50q7 5 15 2v0zM144 240q1 36 32 55q32 18 64 0q31 -19 32 -55q-1 -36 -32 -55q-32 -18 -64 0q-31 19 -32 55v0zM640 16q-1 -34 -24 -56v0q-22 -23 -56 -24h-272q-41 1 -68 28
t-28 68q1 37 23 62q22 26 57 33v1q1 41 28 68t68 28q26 0 48 -13q21 -12 34 -33q20 14 46 14q34 -1 57 -23q22 -23 23 -57q0 -9 -2 -17q29 -6 47 -27q18 -22 19 -52v0z" />
    <glyph glyph-name="cloud-sun" unicode="&#x26c5;" horiz-adv-x="640" 
d="M294 447q8 -4 10 -12l14 -85l85 -14q8 -2 12 -10q3 -8 -2 -15l-38 -55h-7q-35 0 -64 -17v1q-1 41 -28 68t-68 28q-41 -1 -68 -28t-28 -68q1 -41 28 -68t68 -28q12 0 23 3q-27 -14 -46 -39q-18 -24 -23 -56l-25 -17q-7 -5 -15 -2q-8 4 -10 13l-14 84l-85 14q-8 2 -12 10
q-3 8 2 15l50 71l-50 71q-5 7 -2 15q4 8 12 10l85 14l14 85q2 8 10 12q8 3 15 -2l71 -50l71 50q7 5 15 2v0zM144 240q1 36 32 55q32 18 64 0q31 -19 32 -55q-1 -36 -32 -55q-32 -18 -64 0q-31 19 -32 55v0zM640 16q-1 -34 -24 -56v0q-22 -23 -56 -24h-272q-41 1 -68 28
t-28 68q1 37 23 62q22 26 57 33v1q1 41 28 68t68 28q26 0 48 -13q21 -12 34 -33q20 14 46 14q34 -1 57 -23q22 -23 23 -57q0 -9 -2 -17q29 -6 47 -27q18 -22 19 -52v0z" />
    <glyph glyph-name="cloud-rain" unicode="&#x1f327;" 
d="M96 128q-41 1 -68 28v0q-27 27 -28 68q1 32 19 57q18 24 47 34q-2 10 -2 21q1 48 33 79q31 32 79 33q33 0 59 -17q26 -16 40 -43q23 27 61 28q34 -1 57 -23q22 -23 23 -57q0 -8 -2 -16h1h1q41 -1 68 -28t28 -68q-1 -41 -28 -68t-68 -28h-320v0zM89 76q2 4 7 4t7 -4
l35 -65q6 -11 6 -24v-3q0 -20 -14 -34q-14 -13 -34 -14q-20 1 -34 14q-13 14 -14 34v3q0 13 6 24l35 65v0zM249 76q2 4 7 4t7 -4l35 -65q6 -11 6 -24v-3q0 -20 -14 -34q-14 -13 -34 -14q-20 1 -34 14q-13 14 -14 34v3q0 13 6 24l35 65v0zM374 11l35 65q2 4 7 4t7 -4l35 -65
q6 -11 6 -24v-3q0 -20 -14 -34q-14 -13 -34 -14q-20 1 -34 14q-13 14 -14 34v3q0 13 6 24v0z" />
    <glyph glyph-name="cloud-rain" unicode="&#xf73d;" 
d="M96 128q-41 1 -68 28v0q-27 27 -28 68q1 32 19 57q18 24 47 34q-2 10 -2 21q1 48 33 79q31 32 79 33q33 0 59 -17q26 -16 40 -43q23 27 61 28q34 -1 57 -23q22 -23 23 -57q0 -8 -2 -16h1h1q41 -1 68 -28t28 -68q-1 -41 -28 -68t-68 -28h-320v0zM89 76q2 4 7 4t7 -4
l35 -65q6 -11 6 -24v-3q0 -20 -14 -34q-14 -13 -34 -14q-20 1 -34 14q-13 14 -14 34v3q0 13 6 24l35 65v0zM249 76q2 4 7 4t7 -4l35 -65q6 -11 6 -24v-3q0 -20 -14 -34q-14 -13 -34 -14q-20 1 -34 14q-13 14 -14 34v3q0 13 6 24l35 65v0zM374 11l35 65q2 4 7 4t7 -4l35 -65
q6 -11 6 -24v-3q0 -20 -14 -34q-14 -13 -34 -14q-20 1 -34 14q-13 14 -14 34v3q0 13 6 24v0z" />
    <glyph glyph-name="cloud-rain" unicode="&#x26c6;" 
d="M96 128q-41 1 -68 28v0q-27 27 -28 68q1 32 19 57q18 24 47 34q-2 10 -2 21q1 48 33 79q31 32 79 33q33 0 59 -17q26 -16 40 -43q23 27 61 28q34 -1 57 -23q22 -23 23 -57q0 -8 -2 -16h1h1q41 -1 68 -28t28 -68q-1 -41 -28 -68t-68 -28h-320v0zM89 76q2 4 7 4t7 -4
l35 -65q6 -11 6 -24v-3q0 -20 -14 -34q-14 -13 -34 -14q-20 1 -34 14q-13 14 -14 34v3q0 13 6 24l35 65v0zM249 76q2 4 7 4t7 -4l35 -65q6 -11 6 -24v-3q0 -20 -14 -34q-14 -13 -34 -14q-20 1 -34 14q-13 14 -14 34v3q0 13 6 24l35 65v0zM374 11l35 65q2 4 7 4t7 -4l35 -65
q6 -11 6 -24v-3q0 -20 -14 -34q-14 -13 -34 -14q-20 1 -34 14q-13 14 -14 34v3q0 13 6 24v0z" />
    <glyph glyph-name="truck" unicode="&#x1f69a;" horiz-adv-x="640" 
d="M48 448q-20 -1 -34 -14v0q-13 -14 -14 -34v-320q1 -20 14 -34q14 -13 34 -14h16q1 -41 28 -68t68 -28q41 1 68 28t28 68h128q1 -41 28 -68t68 -28q41 1 68 28t28 68h32q14 0 23 9t9 23t-9 23t-23 9v64v32v19q0 26 -19 45l-77 77q-19 19 -45 19h-51v48q-1 20 -14 34
q-14 13 -34 14h-320v0zM416 288h51l77 -77v-19h-128v96v0zM112 32q1 27 24 42q24 12 48 0q23 -15 24 -42q-1 -27 -24 -42q-24 -12 -48 0q-23 15 -24 42v0zM480 80q27 -1 42 -24q12 -24 0 -48q-15 -23 -42 -24q-27 1 -42 24q-12 24 0 48q15 23 42 24v0z" />
    <glyph glyph-name="truck" unicode="&#xf0d1;" horiz-adv-x="640" 
d="M48 448q-20 -1 -34 -14v0q-13 -14 -14 -34v-320q1 -20 14 -34q14 -13 34 -14h16q1 -41 28 -68t68 -28q41 1 68 28t28 68h128q1 -41 28 -68t68 -28q41 1 68 28t28 68h32q14 0 23 9t9 23t-9 23t-23 9v64v32v19q0 26 -19 45l-77 77q-19 19 -45 19h-51v48q-1 20 -14 34
q-14 13 -34 14h-320v0zM416 288h51l77 -77v-19h-128v96v0zM112 32q1 27 24 42q24 12 48 0q23 -15 24 -42q-1 -27 -24 -42q-24 -12 -48 0q-23 15 -24 42v0zM480 80q27 -1 42 -24q12 -24 0 -48q-15 -23 -42 -24q-27 1 -42 24q-12 24 0 48q15 23 42 24v0z" />
    <glyph glyph-name="truck" unicode="&#x26df;" horiz-adv-x="640" 
d="M48 448q-20 -1 -34 -14v0q-13 -14 -14 -34v-320q1 -20 14 -34q14 -13 34 -14h16q1 -41 28 -68t68 -28q41 1 68 28t28 68h128q1 -41 28 -68t68 -28q41 1 68 28t28 68h32q14 0 23 9t9 23t-9 23t-23 9v64v32v19q0 26 -19 45l-77 77q-19 19 -45 19h-51v48q-1 20 -14 34
q-14 13 -34 14h-320v0zM416 288h51l77 -77v-19h-128v96v0zM112 32q1 27 24 42q24 12 48 0q23 -15 24 -42q-1 -27 -24 -42q-24 -12 -48 0q-23 15 -24 42v0zM480 80q27 -1 42 -24q12 -24 0 -48q-15 -23 -42 -24q-27 1 -42 24q-12 24 0 48q15 23 42 24v0z" />
    <glyph glyph-name="torii-gate" unicode="&#xf6a1;" 
d="M0 368q1 -20 14 -34v0q14 -13 34 -14h16v-64h64v64h96v-64h64v64h96v-64h64v64h16q20 1 34 14q13 14 14 34v67q-1 12 -13 13q-3 0 -5 -1l-49 -20q-29 -11 -60 -11h-258q-31 0 -60 11l-49 20q-2 1 -5 1q-12 -1 -13 -13v-67v0zM64 160v-192q0 -14 9 -23t23 -9t23 9t9 23
v192h256v-192q0 -14 9 -23t23 -9t23 9t9 23v192h32q14 0 23 9t9 23t-9 23t-23 9h-448q-14 0 -23 -9t-9 -23t9 -23t23 -9h32v0z" />
    <glyph glyph-name="torii-gate" unicode="&#x26e9;" 
d="M0 368q1 -20 14 -34v0q14 -13 34 -14h16v-64h64v64h96v-64h64v64h96v-64h64v64h16q20 1 34 14q13 14 14 34v67q-1 12 -13 13q-3 0 -5 -1l-49 -20q-29 -11 -60 -11h-258q-31 0 -60 11l-49 20q-2 1 -5 1q-12 -1 -13 -13v-67v0zM64 160v-192q0 -14 9 -23t23 -9t23 9t9 23
v192h256v-192q0 -14 9 -23t23 -9t23 9t9 23v192h32q14 0 23 9t9 23t-9 23t-23 9h-448q-14 0 -23 -9t-9 -23t9 -23t23 -9h32v0z" />
    <glyph glyph-name="church" unicode="&#xf51d;" horiz-adv-x="640" 
d="M344 424q-2 22 -24 24q-22 -2 -24 -24v-24h-32q-22 -2 -24 -24q2 -22 24 -24h32v-46l-113 -68q-22 -14 -23 -41v-261h96v96q1 27 19 45t45 19q27 -1 45 -19t19 -45v-96h96v261q-1 27 -23 41l-113 68v46h32q22 2 24 24q-2 22 -24 24h-32v24v0zM25 118q-24 -15 -25 -42v-92
q1 -20 14 -34q14 -13 34 -14h80v238l-103 -56v0zM592 -64q20 1 34 14v0q13 14 14 34v92q-1 27 -25 42l-103 56v-238h80v0z" />
    <glyph glyph-name="church" unicode="&#x26ea;" horiz-adv-x="640" 
d="M344 424q-2 22 -24 24q-22 -2 -24 -24v-24h-32q-22 -2 -24 -24q2 -22 24 -24h32v-46l-113 -68q-22 -14 -23 -41v-261h96v96q1 27 19 45t45 19q27 -1 45 -19t19 -45v-96h96v261q-1 27 -23 41l-113 68v46h32q22 2 24 24q-2 22 -24 24h-32v24v0zM25 118q-24 -15 -25 -42v-92
q1 -20 14 -34q14 -13 34 -14h80v238l-103 -56v0zM592 -64q20 1 34 14v0q13 14 14 34v92q-1 27 -25 42l-103 56v-238h80v0z" />
    <glyph glyph-name="person-skiing" unicode="&#xf7c9;" 
d="M381 400q1 27 24 42q24 12 48 0q23 -15 24 -42q-1 -27 -24 -42q-24 -12 -48 0q-23 15 -24 42v0zM3 179q12 19 32 10l198 -102l46 69l-75 75q-22 23 -19 52l109 -52l40 -39q12 -13 13 -29q2 -17 -7 -32l-50 -74l129 -67q21 -10 43 0l15 8q21 7 33 -11q7 -21 -11 -32
l-15 -8q-44 -21 -88 1l-383 199q-19 12 -10 32v0zM119 382l18 -8l9 17q8 13 21 7q13 -7 7 -21l-8 -17l55 -26l4 2l84 33q26 10 50 -1t34 -38l17 -51l52 -26q12 -7 16 -19t-1 -24q-7 -12 -19 -16t-24 2l-58 29q-18 9 -24 27l-6 18l-27 -12l-7 -3l-7 3l-153 73l-10 -18
q-8 -13 -21 -7q-13 7 -7 21l9 18l-18 9q-13 7 -7 21q7 12 21 7v0z" />
    <glyph glyph-name="person-skiing" unicode="&#x26f7;" 
d="M381 400q1 27 24 42q24 12 48 0q23 -15 24 -42q-1 -27 -24 -42q-24 -12 -48 0q-23 15 -24 42v0zM3 179q12 19 32 10l198 -102l46 69l-75 75q-22 23 -19 52l109 -52l40 -39q12 -13 13 -29q2 -17 -7 -32l-50 -74l129 -67q21 -10 43 0l15 8q21 7 33 -11q7 -21 -11 -32
l-15 -8q-44 -21 -88 1l-383 199q-19 12 -10 32v0zM119 382l18 -8l9 17q8 13 21 7q13 -7 7 -21l-8 -17l55 -26l4 2l84 33q26 10 50 -1t34 -38l17 -51l52 -26q12 -7 16 -19t-1 -24q-7 -12 -19 -16t-24 2l-58 29q-18 9 -24 27l-6 18l-27 -12l-7 -3l-7 3l-153 73l-10 -18
q-8 -13 -21 -7q-13 7 -7 21l9 18l-18 9q-13 7 -7 21q7 12 21 7v0z" />
    <glyph glyph-name="campground" unicode="&#xf6bb;" horiz-adv-x="576" 
d="M377 396q8 11 7 24v0q-2 12 -12 21q-11 8 -24 7q-12 -2 -21 -12l-39 -49l-39 49q-9 10 -21 12q-13 1 -24 -7q-10 -9 -12 -21q-1 -13 7 -24l48 -60l-235 -293q-12 -16 -12 -35v-24q1 -20 14 -34q14 -13 34 -14h240h240q20 1 34 14q13 14 14 34v24q0 19 -12 35l-235 293
l48 60v0zM288 0h-119l119 156l120 -156h-120v0z" />
    <glyph glyph-name="campground" unicode="&#x26fa;" horiz-adv-x="576" 
d="M377 396q8 11 7 24v0q-2 12 -12 21q-11 8 -24 7q-12 -2 -21 -12l-39 -49l-39 49q-9 10 -21 12q-13 1 -24 -7q-10 -9 -12 -21q-1 -13 7 -24l48 -60l-235 -293q-12 -16 -12 -35v-24q1 -20 14 -34q14 -13 34 -14h240h240q20 1 34 14q13 14 14 34v24q0 19 -12 35l-235 293
l48 60v0zM288 0h-119l119 156l120 -156h-120v0z" />
    <glyph glyph-name="gas-pump" unicode="&#xf52f;" 
d="M32 384q1 27 19 45v0q18 18 45 19h160q27 -1 45 -19t19 -45v-192h8q37 -1 62 -26t26 -62v-32q2 -22 24 -24q22 2 24 24v154q-21 6 -34 22q-14 17 -14 40v64l-32 32q-13 16 0 32q16 13 32 0l77 -77q19 -19 19 -46v-13v-24v-32v-152q-1 -31 -21 -51t-51 -21q-31 1 -51 21
t-21 51v32q0 17 -12 28q-11 12 -28 12h-8v-144q14 0 23 -9t9 -23t-9 -23t-23 -9h-288q-14 0 -23 9t-9 23t9 23t23 9v384v0zM96 368v-96q1 -15 16 -16h128q15 1 16 16v96q-1 15 -16 16h-128q-15 -1 -16 -16v0z" />
    <glyph glyph-name="gas-pump" unicode="&#x26fd;" 
d="M32 384q1 27 19 45v0q18 18 45 19h160q27 -1 45 -19t19 -45v-192h8q37 -1 62 -26t26 -62v-32q2 -22 24 -24q22 2 24 24v154q-21 6 -34 22q-14 17 -14 40v64l-32 32q-13 16 0 32q16 13 32 0l77 -77q19 -19 19 -46v-13v-24v-32v-152q-1 -31 -21 -51t-51 -21q-31 1 -51 21
t-21 51v32q0 17 -12 28q-11 12 -28 12h-8v-144q14 0 23 -9t9 -23t-9 -23t-23 -9h-288q-14 0 -23 9t-9 23t9 23t23 9v384v0zM96 368v-96q1 -15 16 -16h128q15 1 16 16v96q-1 15 -16 16h-128q-15 -1 -16 -16v0z" />
    <glyph glyph-name="scissors" unicode="&#xf0c4;" 
d="M256 256l-39 39q7 19 7 41q-1 48 -33 79q-31 32 -79 33q-48 -1 -79 -33q-32 -31 -33 -79q1 -48 33 -79q31 -32 79 -33q22 0 41 7l39 -39l-39 -40q-19 8 -41 8q-48 -1 -79 -33q-32 -31 -33 -79q1 -48 33 -79q31 -32 79 -33q48 1 79 33q32 31 33 79q0 22 -7 40l282 283
q11 13 0 26q-22 21 -51 21t-51 -21l-141 -141v0zM279 105l118 -118q22 -21 51 -21t51 21q11 13 0 26l-156 156l-64 -64v0zM64 336q1 27 24 42q24 12 48 0q23 -15 24 -42q-1 -27 -24 -42q-24 -12 -48 0q-23 15 -24 42v0zM112 96q27 -1 42 -24q12 -24 0 -48q-15 -23 -42 -24
q-27 1 -42 24q-12 24 0 48q15 23 42 24v0z" />
    <glyph glyph-name="scissors" unicode="&#x2704;" 
d="M256 256l-39 39q7 19 7 41q-1 48 -33 79q-31 32 -79 33q-48 -1 -79 -33q-32 -31 -33 -79q1 -48 33 -79q31 -32 79 -33q22 0 41 7l39 -39l-39 -40q-19 8 -41 8q-48 -1 -79 -33q-32 -31 -33 -79q1 -48 33 -79q31 -32 79 -33q48 1 79 33q32 31 33 79q0 22 -7 40l282 283
q11 13 0 26q-22 21 -51 21t-51 -21l-141 -141v0zM279 105l118 -118q22 -21 51 -21t51 21q11 13 0 26l-156 156l-64 -64v0zM64 336q1 27 24 42q24 12 48 0q23 -15 24 -42q-1 -27 -24 -42q-24 -12 -48 0q-23 15 -24 42v0zM112 96q27 -1 42 -24q12 -24 0 -48q-15 -23 -42 -24
q-27 1 -42 24q-12 24 0 48q15 23 42 24v0z" />
    <glyph glyph-name="scissors" unicode="&#x2702;" 
d="M256 256l-39 39q7 19 7 41q-1 48 -33 79q-31 32 -79 33q-48 -1 -79 -33q-32 -31 -33 -79q1 -48 33 -79q31 -32 79 -33q22 0 41 7l39 -39l-39 -40q-19 8 -41 8q-48 -1 -79 -33q-32 -31 -33 -79q1 -48 33 -79q31 -32 79 -33q48 1 79 33q32 31 33 79q0 22 -7 40l282 283
q11 13 0 26q-22 21 -51 21t-51 -21l-141 -141v0zM279 105l118 -118q22 -21 51 -21t51 21q11 13 0 26l-156 156l-64 -64v0zM64 336q1 27 24 42q24 12 48 0q23 -15 24 -42q-1 -27 -24 -42q-24 -12 -48 0q-23 15 -24 42v0zM112 96q27 -1 42 -24q12 -24 0 -48q-15 -23 -42 -24
q-27 1 -42 24q-12 24 0 48q15 23 42 24v0z" />
    <glyph glyph-name="scissors" unicode="&#x2700;" 
d="M256 256l-39 39q7 19 7 41q-1 48 -33 79q-31 32 -79 33q-48 -1 -79 -33q-32 -31 -33 -79q1 -48 33 -79q31 -32 79 -33q22 0 41 7l39 -39l-39 -40q-19 8 -41 8q-48 -1 -79 -33q-32 -31 -33 -79q1 -48 33 -79q31 -32 79 -33q48 1 79 33q32 31 33 79q0 22 -7 40l282 283
q11 13 0 26q-22 21 -51 21t-51 -21l-141 -141v0zM279 105l118 -118q22 -21 51 -21t51 21q11 13 0 26l-156 156l-64 -64v0zM64 336q1 27 24 42q24 12 48 0q23 -15 24 -42q-1 -27 -24 -42q-24 -12 -48 0q-23 15 -24 42v0zM112 96q27 -1 42 -24q12 -24 0 -48q-15 -23 -42 -24
q-27 1 -42 24q-12 24 0 48q15 23 42 24v0z" />
    <glyph glyph-name="envelope" unicode="&#x1f582;" 
d="M48 384q-20 -1 -34 -14v0q-13 -14 -14 -34q1 -24 19 -38l218 -164q19 -12 38 0l218 164q18 14 19 38q-1 20 -14 34q-14 13 -34 14h-416v0zM0 272v-208q1 -27 19 -45t45 -19h384q27 1 45 19t19 45v208l-218 -163q-17 -13 -38 -13t-38 13l-218 163v0z" />
    <glyph glyph-name="envelope" unicode="&#xf0e0;" 
d="M48 384q-20 -1 -34 -14v0q-13 -14 -14 -34q1 -24 19 -38l218 -164q19 -12 38 0l218 164q18 14 19 38q-1 20 -14 34q-14 13 -34 14h-416v0zM0 272v-208q1 -27 19 -45t45 -19h384q27 1 45 19t19 45v208l-218 -163q-17 -13 -38 -13t-38 13l-218 163v0z" />
    <glyph glyph-name="envelope" unicode="&#xf003;" 
d="M48 384q-20 -1 -34 -14v0q-13 -14 -14 -34q1 -24 19 -38l218 -164q19 -12 38 0l218 164q18 14 19 38q-1 20 -14 34q-14 13 -34 14h-416v0zM0 272v-208q1 -27 19 -45t45 -19h384q27 1 45 19t19 45v208l-218 -163q-17 -13 -38 -13t-38 13l-218 163v0z" />
    <glyph glyph-name="envelope" unicode="&#x2709;" 
d="M48 384q-20 -1 -34 -14v0q-13 -14 -14 -34q1 -24 19 -38l218 -164q19 -12 38 0l218 164q18 14 19 38q-1 20 -14 34q-14 13 -34 14h-416v0zM0 272v-208q1 -27 19 -45t45 -19h384q27 1 45 19t19 45v208l-218 -163q-17 -13 -38 -13t-38 13l-218 163v0z" />
    <glyph glyph-name="hand-fist" unicode="&#xf6de;" horiz-adv-x="448" 
d="M192 448q14 0 23 -9v0q9 -9 9 -23v-112h-64v112q0 14 9 23t23 9v0zM64 384q0 14 9 23v0q9 9 23 9t23 -9t9 -23v-80h-64v80v0zM256 384q0 14 9 23v0q9 9 23 9t23 -9t9 -23v-96q0 -14 -9 -23t-23 -9t-23 9t-9 23v96v0zM352 320q0 14 9 23v0q9 9 23 9t23 -9t9 -23v-64
q0 -14 -9 -23t-23 -9t-23 9t-9 23v64v0zM256 232v1q14 -9 32 -9q20 0 36 11q6 -19 23 -31q16 -12 37 -12q18 0 32 9v-9q0 -40 -17 -73t-47 -55v-96q0 -14 -9 -23t-23 -9h-160q-14 0 -23 9t-9 23v78q-26 12 -47 33l-11 11q-37 38 -38 91v27q1 27 19 45t45 19h88q17 0 28 -12
q12 -11 12 -28t-12 -28q-11 -12 -28 -12h-56q-15 -1 -16 -16q1 -15 16 -16h56q31 1 51 21t21 51v0z" />
    <glyph glyph-name="hand-fist" unicode="&#x270a;" horiz-adv-x="448" 
d="M192 448q14 0 23 -9v0q9 -9 9 -23v-112h-64v112q0 14 9 23t23 9v0zM64 384q0 14 9 23v0q9 9 23 9t23 -9t9 -23v-80h-64v80v0zM256 384q0 14 9 23v0q9 9 23 9t23 -9t9 -23v-96q0 -14 -9 -23t-23 -9t-23 9t-9 23v96v0zM352 320q0 14 9 23v0q9 9 23 9t23 -9t9 -23v-64
q0 -14 -9 -23t-23 -9t-23 9t-9 23v64v0zM256 232v1q14 -9 32 -9q20 0 36 11q6 -19 23 -31q16 -12 37 -12q18 0 32 9v-9q0 -40 -17 -73t-47 -55v-96q0 -14 -9 -23t-23 -9h-160q-14 0 -23 9t-9 23v78q-26 12 -47 33l-11 11q-37 38 -38 91v27q1 27 19 45t45 19h88q17 0 28 -12
q12 -11 12 -28t-12 -28q-11 -12 -28 -12h-56q-15 -1 -16 -16q1 -15 16 -16h56q31 1 51 21t21 51v0z" />
    <glyph glyph-name="hand" unicode="&#x1f91a;" 
d="M288 416q0 14 -9 23v0q-9 9 -23 9t-23 -9t-9 -23v-208q-1 -15 -16 -16q-15 1 -16 16v176q0 14 -9 23t-23 9t-23 -9t-9 -23v-272v-5l-60 58q-13 11 -29 11t-28 -12q-11 -13 -11 -29t12 -28l113 -107q67 -63 160 -64h19q75 2 124 52q50 49 52 124v208q0 14 -9 23t-23 9
t-23 -9t-9 -23v-112q-1 -15 -16 -16q-15 1 -16 16v176q0 14 -9 23t-23 9t-23 -9t-9 -23v-176q-1 -15 -16 -16q-15 1 -16 16v208v0z" />
    <glyph glyph-name="hand" unicode="&#xf256;" 
d="M288 416q0 14 -9 23v0q-9 9 -23 9t-23 -9t-9 -23v-208q-1 -15 -16 -16q-15 1 -16 16v176q0 14 -9 23t-23 9t-23 -9t-9 -23v-272v-5l-60 58q-13 11 -29 11t-28 -12q-11 -13 -11 -29t12 -28l113 -107q67 -63 160 -64h19q75 2 124 52q50 49 52 124v208q0 14 -9 23t-23 9
t-23 -9t-9 -23v-112q-1 -15 -16 -16q-15 1 -16 16v176q0 14 -9 23t-23 9t-23 -9t-9 -23v-176q-1 -15 -16 -16q-15 1 -16 16v208v0z" />
    <glyph glyph-name="hand" unicode="&#x270b;" 
d="M288 416q0 14 -9 23v0q-9 9 -23 9t-23 -9t-9 -23v-208q-1 -15 -16 -16q-15 1 -16 16v176q0 14 -9 23t-23 9t-23 -9t-9 -23v-272v-5l-60 58q-13 11 -29 11t-28 -12q-11 -13 -11 -29t12 -28l113 -107q67 -63 160 -64h19q75 2 124 52q50 49 52 124v208q0 14 -9 23t-23 9
t-23 -9t-9 -23v-112q-1 -15 -16 -16q-15 1 -16 16v176q0 14 -9 23t-23 9t-23 -9t-9 -23v-176q-1 -15 -16 -16q-15 1 -16 16v208v0z" />
    <glyph glyph-name="hand-peace" unicode="&#xf25b;" 
d="M224 448q14 0 23 -9v0q9 -9 9 -23v-208h-64v208q0 14 9 23t23 9v0zM320 288q14 0 23 -9v0q9 -9 9 -23v-64q0 -14 -9 -23t-23 -9t-23 9t-9 23v64q0 14 9 23t23 9v0zM384 224q0 14 9 23v0q9 9 23 9t23 -9t9 -23v-64q0 -14 -9 -23t-23 -9t-23 9t-9 23v64v0zM93 397l83 -189
h-70l-71 163q-5 13 -1 25q5 12 17 17q13 5 25 1q12 -5 17 -17v0zM120 175v1h70h26q17 0 28 -12q12 -11 12 -28t-12 -28q-11 -12 -28 -12h-56q-15 -1 -16 -16q1 -15 16 -16h56q31 1 51 21t21 51v1q14 -9 32 -9q20 0 36 11q6 -19 23 -31q16 -12 37 -12q18 0 32 9v-9
q-2 -68 -47 -113t-113 -47h-62q-66 1 -113 47l-11 11q-37 38 -38 91v27q1 25 16 43q16 17 40 20v0z" />
    <glyph glyph-name="hand-peace" unicode="&#x270c;" 
d="M224 448q14 0 23 -9v0q9 -9 9 -23v-208h-64v208q0 14 9 23t23 9v0zM320 288q14 0 23 -9v0q9 -9 9 -23v-64q0 -14 -9 -23t-23 -9t-23 9t-9 23v64q0 14 9 23t23 9v0zM384 224q0 14 9 23v0q9 9 23 9t23 -9t9 -23v-64q0 -14 -9 -23t-23 -9t-23 9t-9 23v64v0zM93 397l83 -189
h-70l-71 163q-5 13 -1 25q5 12 17 17q13 5 25 1q12 -5 17 -17v0zM120 175v1h70h26q17 0 28 -12q12 -11 12 -28t-12 -28q-11 -12 -28 -12h-56q-15 -1 -16 -16q1 -15 16 -16h56q31 1 51 21t21 51v1q14 -9 32 -9q20 0 36 11q6 -19 23 -31q16 -12 37 -12q18 0 32 9v-9
q-2 -68 -47 -113t-113 -47h-62q-66 1 -113 47l-11 11q-37 38 -38 91v27q1 25 16 43q16 17 40 20v0z" />
    <glyph glyph-name="pencil" unicode="&#xf303;" 
d="M410 217l12 11l-34 34l-62 62l-34 34l-12 -11l-22 -23l-199 -199q-16 -16 -23 -37l-35 -121q-4 -13 6 -23t24 -7l120 36q22 6 38 22l199 199l22 23v0zM160 49l-9 -23q-6 -5 -13 -7l-79 -23l23 78q3 7 7 13l23 9v-32q1 -14 16 -16h32v1zM363 429l-15 -14l-22 -23l-12 -11
l34 -34l62 -62l34 -34l11 11l23 23l15 14q18 20 18 46q0 25 -18 45l-40 39q-19 19 -45 19q-25 0 -45 -19v0zM315 261l-144 -144q-11 -9 -22 0q-10 12 0 23l144 144q11 9 22 0q10 -11 0 -23v0z" />
    <glyph glyph-name="pencil" unicode="&#xf040;" 
d="M410 217l12 11l-34 34l-62 62l-34 34l-12 -11l-22 -23l-199 -199q-16 -16 -23 -37l-35 -121q-4 -13 6 -23t24 -7l120 36q22 6 38 22l199 199l22 23v0zM160 49l-9 -23q-6 -5 -13 -7l-79 -23l23 78q3 7 7 13l23 9v-32q1 -14 16 -16h32v1zM363 429l-15 -14l-22 -23l-12 -11
l34 -34l62 -62l34 -34l11 11l23 23l15 14q18 20 18 46q0 25 -18 45l-40 39q-19 19 -45 19q-25 0 -45 -19v0zM315 261l-144 -144q-11 -9 -22 0q-10 12 0 23l144 144q11 9 22 0q10 -11 0 -23v0z" />
    <glyph glyph-name="pencil" unicode="&#x270f;" 
d="M410 217l12 11l-34 34l-62 62l-34 34l-12 -11l-22 -23l-199 -199q-16 -16 -23 -37l-35 -121q-4 -13 6 -23t24 -7l120 36q22 6 38 22l199 199l22 23v0zM160 49l-9 -23q-6 -5 -13 -7l-79 -23l23 78q3 7 7 13l23 9v-32q1 -14 16 -16h32v1zM363 429l-15 -14l-22 -23l-12 -11
l34 -34l62 -62l34 -34l11 11l23 23l15 14q18 20 18 46q0 25 -18 45l-40 39q-19 19 -45 19q-25 0 -45 -19v0zM315 261l-144 -144q-11 -9 -22 0q-10 12 0 23l144 144q11 9 22 0q10 -11 0 -23v0z" />
    <glyph glyph-name="pen-nib" unicode="&#xf5ad;" 
d="M368 430l-55 -56l125 -125l56 55q16 18 16 40t-16 40l-46 46q-18 16 -40 16t-40 -16v0zM288 353l-9 -2l-144 -44q-31 -10 -43 -41l-88 -264q-6 -18 7 -32l154 153q-5 10 -5 21q1 20 14 34q14 13 34 14q20 -1 34 -14q13 -14 14 -34q-1 -20 -14 -34q-14 -13 -34 -14
q-11 0 -21 5l-153 -154q14 -13 32 -7l264 88q31 12 41 43l44 144l2 9l-129 129v0z" />
    <glyph glyph-name="pen-nib" unicode="&#x2711;" 
d="M368 430l-55 -56l125 -125l56 55q16 18 16 40t-16 40l-46 46q-18 16 -40 16t-40 -16v0zM288 353l-9 -2l-144 -44q-31 -10 -43 -41l-88 -264q-6 -18 7 -32l154 153q-5 10 -5 21q1 20 14 34q14 13 34 14q20 -1 34 -14q13 -14 14 -34q-1 -20 -14 -34q-14 -13 -34 -14
q-11 0 -21 5l-153 -154q14 -13 32 -7l264 88q31 12 41 43l44 144l2 9l-129 129v0z" />
    <glyph glyph-name="pen-fancy" unicode="&#x1f58b;" 
d="M374 421q23 26 59 27q34 -1 56 -23t23 -56q-1 -36 -27 -60l-207 -180l-11 10l-64 64l-10 11l181 207v0zM170 191l11 -10l64 -64l10 -11l-19 -83q-7 -27 -34 -35l-178 -50l96 95q4 -1 8 -1q14 0 23 9t9 23t-9 23t-23 9t-23 -9t-9 -23q0 -4 1 -8l-95 -96l50 178q8 27 35 34
l83 19v0z" />
    <glyph glyph-name="pen-fancy" unicode="&#xf5ac;" 
d="M374 421q23 26 59 27q34 -1 56 -23t23 -56q-1 -36 -27 -60l-207 -180l-11 10l-64 64l-10 11l181 207v0zM170 191l11 -10l64 -64l10 -11l-19 -83q-7 -27 -34 -35l-178 -50l96 95q4 -1 8 -1q14 0 23 9t9 23t-9 23t-23 9t-23 -9t-9 -23q0 -4 1 -8l-95 -96l50 178q8 27 35 34
l83 19v0z" />
    <glyph glyph-name="pen-fancy" unicode="&#x2712;" 
d="M374 421q23 26 59 27q34 -1 56 -23t23 -56q-1 -36 -27 -60l-207 -180l-11 10l-64 64l-10 11l181 207v0zM170 191l11 -10l64 -64l10 -11l-19 -83q-7 -27 -34 -35l-178 -50l96 95q4 -1 8 -1q14 0 23 9t9 23t-9 23t-23 9t-23 -9t-9 -23q0 -4 1 -8l-95 -96l50 178q8 27 35 34
l83 19v0z" />
    <glyph glyph-name="check" unicode="&#xf00c;" horiz-adv-x="448" 
d="M439 343q9 -10 9 -23v0q0 -13 -9 -23l-256 -256q-10 -9 -23 -9t-23 9l-128 128q-9 10 -9 23t9 23q10 9 23 9t23 -9l105 -106l233 234q10 9 23 9t23 -9v0z" />
    <glyph glyph-name="check" unicode="&#x2714;" horiz-adv-x="448" 
d="M439 343q9 -10 9 -23v0q0 -13 -9 -23l-256 -256q-10 -9 -23 -9t-23 9l-128 128q-9 10 -9 23t9 23q10 9 23 9t23 -9l105 -106l233 234q10 9 23 9t23 -9v0z" />
    <glyph glyph-name="check" unicode="&#x2713;" horiz-adv-x="448" 
d="M439 343q9 -10 9 -23v0q0 -13 -9 -23l-256 -256q-10 -9 -23 -9t-23 9l-128 128q-9 10 -9 23t9 23q10 9 23 9t23 -9l105 -106l233 234q10 9 23 9t23 -9v0z" />
    <glyph glyph-name="cross" unicode="&#x1f547;" horiz-adv-x="384" 
d="M176 448q-20 -1 -34 -14v0q-13 -14 -14 -34v-80h-80q-20 -1 -34 -14q-13 -14 -14 -34v-32q1 -20 14 -34q14 -13 34 -14h80v-208q1 -20 14 -34q14 -13 34 -14h32q20 1 34 14q13 14 14 34v208h80q20 1 34 14q13 14 14 34v32q-1 20 -14 34q-14 13 -34 14h-80v80
q-1 20 -14 34q-14 13 -34 14h-32v0z" />
    <glyph glyph-name="cross" unicode="&#xf654;" horiz-adv-x="384" 
d="M176 448q-20 -1 -34 -14v0q-13 -14 -14 -34v-80h-80q-20 -1 -34 -14q-13 -14 -14 -34v-32q1 -20 14 -34q14 -13 34 -14h80v-208q1 -20 14 -34q14 -13 34 -14h32q20 1 34 14q13 14 14 34v208h80q20 1 34 14q13 14 14 34v32q-1 20 -14 34q-14 13 -34 14h-80v80
q-1 20 -14 34q-14 13 -34 14h-32v0z" />
    <glyph glyph-name="cross" unicode="&#x271d;" horiz-adv-x="384" 
d="M176 448q-20 -1 -34 -14v0q-13 -14 -14 -34v-80h-80q-20 -1 -34 -14q-13 -14 -14 -34v-32q1 -20 14 -34q14 -13 34 -14h80v-208q1 -20 14 -34q14 -13 34 -14h32q20 1 34 14q13 14 14 34v208h80q20 1 34 14q13 14 14 34v32q-1 20 -14 34q-14 13 -34 14h-80v80
q-1 20 -14 34q-14 13 -34 14h-32v0z" />
    <glyph glyph-name="star-of-david" unicode="&#xf69a;" 
d="M404 138l-21 -34h42l-21 34v0zM371 192l-54 88h-122l-54 -88l54 -88h122l54 88v0zM437 192l53 -87q6 -9 6 -20q0 -16 -11 -26q-11 -11 -26 -11h-110l-56 -92q-13 -19 -37 -20q-24 1 -37 20l-56 92h-110q-15 0 -26 11t-11 26q0 11 6 20l53 87l-53 87q-6 9 -6 20
q0 15 11 26t26 11h110l57 91q12 20 36 21q24 -1 37 -21l56 -91h110q16 0 26 -11q11 -11 11 -26q0 -11 -5 -20l-54 -87v0zM383 280l21 -35l21 35h-42v0zM283 336l-27 44l-27 -44h54v0zM129 280h-42l21 -35l21 35v0zM108 138l-21 -34h42l-21 34v0zM229 48l27 -44l27 44h-54v0z
" />
    <glyph glyph-name="star-of-david" unicode="&#x2721;" 
d="M404 138l-21 -34h42l-21 34v0zM371 192l-54 88h-122l-54 -88l54 -88h122l54 88v0zM437 192l53 -87q6 -9 6 -20q0 -16 -11 -26q-11 -11 -26 -11h-110l-56 -92q-13 -19 -37 -20q-24 1 -37 20l-56 92h-110q-15 0 -26 11t-11 26q0 11 6 20l53 87l-53 87q-6 9 -6 20
q0 15 11 26t26 11h110l57 91q12 20 36 21q24 -1 37 -21l56 -91h110q16 0 26 -11q11 -11 11 -26q0 -11 -5 -20l-54 -87v0zM383 280l21 -35l21 35h-42v0zM283 336l-27 44l-27 -44h54v0zM129 280h-42l21 -35l21 35v0zM108 138l-21 -34h42l-21 34v0zM229 48l27 -44l27 44h-54v0z
" />
    <glyph glyph-name="snowflake" unicode="&#xf2dc;" horiz-adv-x="448" 
d="M224 448q14 0 23 -9v0q9 -9 9 -23v-30l15 15q17 14 34 0q14 -17 0 -34l-49 -49v-70l61 35l18 67q8 20 29 17q21 -8 17 -30l-5 -19l24 14q12 6 24 3t20 -15q6 -12 3 -24t-15 -20l-25 -14l22 -6q20 -8 17 -30q-8 -20 -30 -17l-68 18l-60 -35l60 -36l68 19q22 3 29 -17
q4 -22 -17 -30l-21 -6l25 -14q12 -8 15 -20t-3 -24q-8 -12 -20 -15t-24 3l-24 14l5 -19q4 -22 -17 -30q-21 -3 -29 17l-18 67l-61 35v-70l49 -49q14 -17 0 -34q-17 -14 -34 0l-15 15v-30q0 -14 -9 -23t-23 -9t-23 9t-9 23v30l-15 -15q-17 -14 -34 0q-14 17 0 34l49 49v70
l-61 -36l-18 -66q-8 -20 -29 -17q-21 8 -17 30l5 19l-24 -14q-12 -6 -24 -3q-13 3 -20 15q-6 12 -3 24q3 13 15 20l25 14l-22 6q-20 8 -17 30q8 20 30 17l67 -18l62 35l-61 35l-68 -18q-22 -3 -29 17q-4 22 17 30l21 6l-25 14q-12 8 -15 20t3 24q8 12 20 15t24 -3l24 -14
l-5 19q-4 22 17 30q21 3 29 -17l18 -67l61 -35v70l-49 49q-14 17 0 34q17 14 34 0l15 -15v30q0 14 9 23t23 9v0z" />
    <glyph glyph-name="snowflake" unicode="&#x2746;" horiz-adv-x="448" 
d="M224 448q14 0 23 -9v0q9 -9 9 -23v-30l15 15q17 14 34 0q14 -17 0 -34l-49 -49v-70l61 35l18 67q8 20 29 17q21 -8 17 -30l-5 -19l24 14q12 6 24 3t20 -15q6 -12 3 -24t-15 -20l-25 -14l22 -6q20 -8 17 -30q-8 -20 -30 -17l-68 18l-60 -35l60 -36l68 19q22 3 29 -17
q4 -22 -17 -30l-21 -6l25 -14q12 -8 15 -20t-3 -24q-8 -12 -20 -15t-24 3l-24 14l5 -19q4 -22 -17 -30q-21 -3 -29 17l-18 67l-61 35v-70l49 -49q14 -17 0 -34q-17 -14 -34 0l-15 15v-30q0 -14 -9 -23t-23 -9t-23 9t-9 23v30l-15 -15q-17 -14 -34 0q-14 17 0 34l49 49v70
l-61 -36l-18 -66q-8 -20 -29 -17q-21 8 -17 30l5 19l-24 -14q-12 -6 -24 -3q-13 3 -20 15q-6 12 -3 24q3 13 15 20l25 14l-22 6q-20 8 -17 30q8 20 30 17l67 -18l62 35l-61 35l-68 -18q-22 -3 -29 17q-4 22 17 30l21 6l-25 14q-12 8 -15 20t3 24q8 12 20 15t24 -3l24 -14
l-5 19q-4 22 17 30q21 3 29 -17l18 -67l61 -35v70l-49 49q-14 17 0 34q17 14 34 0l15 -15v30q0 14 9 23t23 9v0z" />
    <glyph glyph-name="snowflake" unicode="&#x2744;" horiz-adv-x="448" 
d="M224 448q14 0 23 -9v0q9 -9 9 -23v-30l15 15q17 14 34 0q14 -17 0 -34l-49 -49v-70l61 35l18 67q8 20 29 17q21 -8 17 -30l-5 -19l24 14q12 6 24 3t20 -15q6 -12 3 -24t-15 -20l-25 -14l22 -6q20 -8 17 -30q-8 -20 -30 -17l-68 18l-60 -35l60 -36l68 19q22 3 29 -17
q4 -22 -17 -30l-21 -6l25 -14q12 -8 15 -20t-3 -24q-8 -12 -20 -15t-24 3l-24 14l5 -19q4 -22 -17 -30q-21 -3 -29 17l-18 67l-61 35v-70l49 -49q14 -17 0 -34q-17 -14 -34 0l-15 15v-30q0 -14 -9 -23t-23 -9t-23 9t-9 23v30l-15 -15q-17 -14 -34 0q-14 17 0 34l49 49v70
l-61 -36l-18 -66q-8 -20 -29 -17q-21 8 -17 30l5 19l-24 -14q-12 -6 -24 -3q-13 3 -20 15q-6 12 -3 24q3 13 15 20l25 14l-22 6q-20 8 -17 30q8 20 30 17l67 -18l62 35l-61 35l-68 -18q-22 -3 -29 17q-4 22 17 30l21 6l-25 14q-12 8 -15 20t3 24q8 12 20 15t24 -3l24 -14
l-5 19q-4 22 17 30q21 3 29 -17l18 -67l61 -35v70l-49 49q-14 17 0 34q17 14 34 0l15 -15v30q0 14 9 23t23 9v0z" />
    <glyph glyph-name="square-xmark" unicode="&#xf2d3;" horiz-adv-x="448" 
d="M64 416q-27 -1 -45 -19v0q-18 -18 -19 -45v-320q1 -27 19 -45t45 -19h320q27 1 45 19t19 45v320q-1 27 -19 45t-45 19h-320v0zM143 273q17 14 34 0l47 -47l47 47q17 14 34 0q14 -17 0 -34l-47 -47l47 -47q14 -17 0 -34q-17 -14 -34 0l-47 47l-47 -47q-17 -14 -34 0
q-14 17 0 34l47 47l-47 47q-14 17 0 34v0z" />
    <glyph glyph-name="square-xmark" unicode="&#x274e;" horiz-adv-x="448" 
d="M64 416q-27 -1 -45 -19v0q-18 -18 -19 -45v-320q1 -27 19 -45t45 -19h320q27 1 45 19t19 45v320q-1 27 -19 45t-45 19h-320v0zM143 273q17 14 34 0l47 -47l47 47q17 14 34 0q14 -17 0 -34l-47 -47l47 -47q14 -17 0 -34q-17 -14 -34 0l-47 47l-47 -47q-17 -14 -34 0
q-14 17 0 34l47 47l-47 47q-14 17 0 34v0z" />
    <glyph glyph-name="turn-up" unicode="&#xf3bf;" horiz-adv-x="384" 
d="M350 270q5 15 -5 26l-136 144q-7 8 -17 8t-17 -8l-136 -144q-10 -11 -5 -26q7 -13 22 -14h88v-192q0 -14 -9 -23t-23 -9h-80q-14 0 -23 -9t-9 -23v-32q0 -14 9 -23t23 -9h80q54 1 91 37q36 37 37 91v192h88q15 1 22 14v0z" />
    <glyph glyph-name="turn-up" unicode="&#x2934;" horiz-adv-x="384" 
d="M350 270q5 15 -5 26l-136 144q-7 8 -17 8t-17 -8l-136 -144q-10 -11 -5 -26q7 -13 22 -14h88v-192q0 -14 -9 -23t-23 -9h-80q-14 0 -23 -9t-9 -23v-32q0 -14 9 -23t23 -9h80q54 1 91 37q36 37 37 91v192h88q15 1 22 14v0z" />
    <glyph glyph-name="turn-down" unicode="&#xf3be;" horiz-adv-x="384" 
d="M350 113q5 -14 -5 -26l-136 -144q-7 -7 -17 -7t-17 7l-136 144q-10 12 -5 26q7 14 22 15h88v192q0 14 -9 23t-23 9h-80q-14 0 -23 9t-9 23v32q0 14 9 23t23 9h80q54 -1 91 -37q36 -37 37 -91v-192h88q15 -1 22 -15v0z" />
    <glyph glyph-name="turn-down" unicode="&#x2935;" horiz-adv-x="384" 
d="M350 113q5 -14 -5 -26l-136 -144q-7 -7 -17 -7t-17 7l-136 144q-10 12 -5 26q7 14 22 15h88v192q0 14 -9 23t-23 9h-80q-14 0 -23 9t-9 23v32q0 14 9 23t23 9h80q54 -1 91 -37q36 -37 37 -91v-192h88q15 -1 22 -15v0z" />
    <glyph glyph-name="square-full" unicode="&#x1f7eb;" 
d="M0 448h512v-512h-512v512v0z" />
    <glyph glyph-name="square-full" unicode="&#x1f7ea;" 
d="M0 448h512v-512h-512v512v0z" />
    <glyph glyph-name="square-full" unicode="&#x1f7e9;" 
d="M0 448h512v-512h-512v512v0z" />
    <glyph glyph-name="square-full" unicode="&#x1f7e8;" 
d="M0 448h512v-512h-512v512v0z" />
    <glyph glyph-name="square-full" unicode="&#x1f7e7;" 
d="M0 448h512v-512h-512v512v0z" />
    <glyph glyph-name="square-full" unicode="&#x1f7e6;" 
d="M0 448h512v-512h-512v512v0z" />
    <glyph glyph-name="square-full" unicode="&#x1f7e5;" 
d="M0 448h512v-512h-512v512v0z" />
    <glyph glyph-name="square-full" unicode="&#xf45c;" 
d="M0 448h512v-512h-512v512v0z" />
    <glyph glyph-name="square-full" unicode="&#x2b1c;" 
d="M0 448h512v-512h-512v512v0z" />
    <glyph glyph-name="square-full" unicode="&#x2b1b;" 
d="M0 448h512v-512h-512v512v0z" />
    <glyph glyph-name="star" unicode="&#xf006;" horiz-adv-x="576" 
d="M317 430q-9 17 -29 18q-19 -1 -29 -18l-64 -132l-144 -22q-19 -3 -25 -21q-6 -19 8 -33l104 -103l-25 -146q-2 -19 13 -31q16 -11 34 -2l128 68l129 -68q17 -9 33 2q16 12 13 31l-24 146l104 103q13 14 8 33q-7 18 -26 21l-144 22l-64 132v0z" />
    <glyph glyph-name="star" unicode="&#xf005;" horiz-adv-x="576" 
d="M317 430q-9 17 -29 18q-19 -1 -29 -18l-64 -132l-144 -22q-19 -3 -25 -21q-6 -19 8 -33l104 -103l-25 -146q-2 -19 13 -31q16 -11 34 -2l128 68l129 -68q17 -9 33 2q16 12 13 31l-24 146l104 103q13 14 8 33q-7 18 -26 21l-144 22l-64 132v0z" />
    <glyph glyph-name="star" unicode="&#x2b50;" horiz-adv-x="576" 
d="M317 430q-9 17 -29 18q-19 -1 -29 -18l-64 -132l-144 -22q-19 -3 -25 -21q-6 -19 8 -33l104 -103l-25 -146q-2 -19 13 -31q16 -11 34 -2l128 68l129 -68q17 -9 33 2q16 12 13 31l-24 146l104 103q13 14 8 33q-7 18 -26 21l-144 22l-64 132v0z" />
    <glyph glyph-name="faucet" unicode="&#xe005;" 
d="M192 352v-12l-96 12q-14 0 -23 -9t-9 -23t9 -23t23 -9l96 12l31 4h1h1l31 -4l96 -12q14 0 23 9t9 23t-9 23t-23 9l-96 -12v12q0 14 -9 23t-23 9t-23 -9t-9 -23v0zM32 192q-14 0 -23 -9v0q-9 -9 -9 -23v-64q0 -14 9 -23t23 -9h100q33 -46 92 -48q59 2 92 48h36q14 0 23 -9
t9 -23t9 -23t23 -9h64q14 0 23 9t9 23q-2 68 -47 113t-113 47h-32l-23 23q-9 9 -22 9h-19v44l-32 4l-32 -4v-44h-19q-13 0 -22 -9l-23 -23h-96v0z" />
    <glyph glyph-name="faucet-drip" unicode="&#x1f6b0;" 
d="M224 448q14 0 23 -9v0q9 -9 9 -23v-12l96 12q14 0 23 -9t9 -23t-9 -23t-23 -9l-96 12l-31 4h-1h-1l-31 -4l-96 -12q-14 0 -23 9t-9 23t9 23t23 9l96 -12v12q0 14 9 23t23 9v0zM0 224q0 14 9 23v0q9 9 23 9h96l23 23q9 9 22 9h19v44l32 4l32 -4v-44h19q13 0 22 -9l23 -23
h32q68 -2 113 -47t47 -113q0 -14 -9 -23t-23 -9h-64q-14 0 -23 9t-9 23t-9 23t-23 9h-36q-33 -46 -92 -48q-59 2 -92 48h-100q-14 0 -23 9t-9 23v64v0zM437 25q3 7 11 7t11 -7l18 -43q3 -6 3 -13v-1q0 -14 -9 -23t-23 -9t-23 9t-9 23v1q0 7 3 13l18 43v0z" />
    <glyph glyph-name="faucet-drip" unicode="&#xe006;" 
d="M224 448q14 0 23 -9v0q9 -9 9 -23v-12l96 12q14 0 23 -9t9 -23t-9 -23t-23 -9l-96 12l-31 4h-1h-1l-31 -4l-96 -12q-14 0 -23 9t-9 23t9 23t23 9l96 -12v12q0 14 9 23t23 9v0zM0 224q0 14 9 23v0q9 9 23 9h96l23 23q9 9 22 9h19v44l32 4l32 -4v-44h19q13 0 22 -9l23 -23
h32q68 -2 113 -47t47 -113q0 -14 -9 -23t-23 -9h-64q-14 0 -23 9t-9 23t-9 23t-23 9h-36q-33 -46 -92 -48q-59 2 -92 48h-100q-14 0 -23 9t-9 23v64v0zM437 25q3 7 11 7t11 -7l18 -43q3 -6 3 -13v-1q0 -14 -9 -23t-23 -9t-23 9t-9 23v1q0 7 3 13l18 43v0z" />
    <glyph glyph-name="house-chimney-window" unicode="&#xe00d;" horiz-adv-x="576" 
d="M576 192q-1 -13 -10 -22v0q-9 -9 -22 -10h-32l1 -160q-1 -27 -19 -45t-45 -19h-321q-27 1 -45 19t-19 45v160h-32q-14 1 -23 10t-9 22q0 14 10 24l256 224q11 9 22 8q12 0 21 -7l107 -94v37q0 14 9 23t23 9h32q14 0 23 -9t9 -23v-121l53 -46q12 -11 11 -24v-1zM248 256
q-22 -2 -24 -24v-80q2 -22 24 -24h80q22 2 24 24v80q-2 22 -24 24h-80v0z" />
    <glyph glyph-name="house-signal" unicode="&#xe012;" horiz-adv-x="576" 
d="M358 439q-10 9 -22 9v0q-12 0 -22 -9l-208 -192q-14 -14 -8 -34q66 -19 113 -67q48 -48 67 -114h186q20 0 34 14q13 14 14 34v112h32q21 1 30 20q7 20 -8 35l-208 192v0zM288 240q1 15 16 16h64q15 -1 16 -16v-64q-1 -15 -16 -16h-64q-15 1 -16 16v64v0zM24 192
q-22 -2 -24 -24q2 -22 24 -24q78 -2 130 -54t54 -130q2 -22 24 -24q22 2 24 24q-1 65 -32 117t-83 83t-117 32v0zM32 -64q14 0 23 9v0q9 9 9 23t-9 23t-23 9t-23 -9t-9 -23t9 -23t23 -9v0zM0 72q2 -22 24 -24q37 -1 62 -26t26 -62q2 -22 24 -24q22 2 24 24q-1 58 -40 96
q-38 39 -96 40q-22 -2 -24 -24v0z" />
    <glyph glyph-name="temperature-arrow-down" unicode="&#xe03f;" horiz-adv-x="576" 
d="M128 336q1 20 14 34v0q14 13 34 14q20 -1 34 -14q13 -14 14 -34v-165q2 -26 15 -42q17 -21 17 -49q-1 -34 -23 -57q-23 -22 -57 -23q-34 1 -57 23q-22 23 -23 57q0 28 17 49q13 16 15 42v165v0zM176 448q-48 -1 -79 -33v0q-32 -31 -33 -79v-164v-1v0q-1 -1 -2 -3
q-29 -37 -30 -88q2 -61 42 -102q41 -40 102 -42q61 2 102 42q40 41 42 102q-1 51 -30 88q-1 2 -2 3v0v0v165q-1 48 -33 79q-31 32 -79 33v0zM176 32q20 1 34 14v0q13 14 14 34q-2 33 -32 45v51q-1 15 -16 16q-15 -1 -16 -16v-51q-30 -12 -32 -45q1 -20 14 -34q14 -13 34 -14
v0zM512 96h-32v288q0 14 -9 23t-23 9t-23 -9t-9 -23v-288h-32q-21 -1 -30 -20q-7 -19 7 -35l64 -64q10 -9 23 -9t23 9l64 64q14 16 6 35t-29 20v0z" />
    <glyph glyph-name="temperature-arrow-up" unicode="&#xe040;" horiz-adv-x="576" 
d="M128 336q1 20 14 34v0q14 13 34 14q20 -1 34 -14q13 -14 14 -34v-165q2 -26 15 -42q17 -21 17 -49q-1 -34 -23 -57q-23 -22 -57 -23q-34 1 -57 23q-22 23 -23 57q0 28 17 49q13 16 15 42v165v0zM176 448q-48 -1 -79 -33v0q-32 -31 -33 -79v-164v-1v0q-1 -1 -2 -3
q-29 -37 -30 -88q2 -61 42 -102q41 -40 102 -42q61 2 102 42q40 41 42 102q-1 51 -30 88q-1 2 -2 3v0v0v165q-1 48 -33 79q-31 32 -79 33v0zM176 32q20 1 34 14v0q13 14 14 34q-2 33 -32 45v211q-1 15 -16 16q-15 -1 -16 -16v-211q-30 -12 -32 -45q1 -20 14 -34
q14 -13 34 -14v0zM480 288h32q21 1 30 20q7 19 -7 35l-64 64q-10 9 -23 9t-23 -9l-64 -64q-14 -16 -7 -35q9 -19 30 -20h32v-288q0 -14 9 -23t23 -9t23 9t9 23v288v0z" />
    <glyph glyph-name="trailer" unicode="&#xe041;" horiz-adv-x="640" 
d="M48 416q-20 -1 -34 -14v0q-13 -14 -14 -34v-256q1 -20 14 -34q14 -13 34 -14h17q7 42 37 68q31 27 74 28q43 -1 74 -28q30 -26 37 -68h201h8h112q14 0 23 9t9 23t-9 23t-23 9h-64v240q-1 20 -14 34q-14 13 -34 14h-448v0zM80 352q15 -1 16 -16v-131q-17 -9 -32 -21v152
q1 15 16 16v0zM176 224q-8 0 -16 -1v113q1 15 16 16q15 -1 16 -16v-113q-8 1 -16 1v0zM256 205v131q1 15 16 16q15 -1 16 -16v-152q-15 12 -32 21v0zM368 352q15 -1 16 -16v-192q-1 -15 -16 -16q-15 1 -16 16v192q1 15 16 16v0zM480 336v-192q-1 -15 -16 -16q-15 1 -16 16
v192q1 15 16 16q15 -1 16 -16v0zM176 -32q45 1 69 40q22 40 0 80q-24 39 -69 40q-45 -1 -69 -40q-22 -40 0 -80q24 -39 69 -40v0zM176 80q14 0 23 -9v0q9 -9 9 -23t-9 -23t-23 -9t-23 9t-9 23t9 23t23 9v0z" />
    <glyph glyph-name="bacteria" unicode="&#xe059;" horiz-adv-x="640" 
d="M305 447q-16 3 -22 -12l-5 -15q-12 1 -25 -2q-11 -3 -21 -6l-5 13q-8 15 -24 10q-15 -8 -10 -24l5 -11q-25 -10 -46 -22l-5 8q-10 13 -25 5q-13 -10 -5 -25l6 -9q-20 -17 -36 -35l-10 8q-14 9 -25 -3q-9 -14 3 -25l11 -9q-3 -4 -5 -9q-10 -17 -16 -33l-8 4q-16 4 -24 -10
q-4 -16 10 -24l11 -4v0q-1 -1 -1 -2q-3 -14 -4 -24v-6l-1 -1v-2v-1v-1v-1v0v0q-1 0 4 0q4 0 25 -1v0l-29 1v-9l-15 -5q-15 -6 -12 -22q6 -15 22 -12l16 4q11 -21 32 -32l-4 -16q-3 -16 12 -22q16 -3 22 12l5 15h3q24 0 43 10l9 -9q13 -10 26 0q10 13 0 26l-7 7q14 19 16 45
l7 -3q16 -6 24 9q5 16 -10 24l-8 3q8 16 36 34l2 -5q6 -15 22 -12q15 6 12 22l-2 8q6 2 12 3q18 5 31 15l7 -7q13 -11 26 0q10 12 0 25l-9 9q11 21 10 47l15 4q16 6 13 22q-7 15 -23 12l-16 -4q-12 21 -32 32l4 16q3 16 -12 22v0zM112 176l-48 1v0h19q13 -1 29 -1v0z
M128 256q14 0 23 -9v0q9 -9 9 -23t-9 -23t-23 -9t-23 9t-9 23t9 23t23 9v0zM192 304q1 15 16 16q15 -1 16 -16q-1 -15 -16 -16q-15 1 -16 16v0zM323 -41q-3 -16 12 -22q16 -3 22 12l5 15q12 -1 25 2q11 3 21 6l5 -13q8 -15 24 -10q15 8 10 24l-5 10q25 11 46 23l5 -8
q10 -13 25 -5q13 10 5 25l-6 9q20 17 36 35l10 -8q14 -9 25 3q9 14 -3 25l-11 9q3 4 5 8q10 18 16 33l8 -3q16 -4 24 10q4 16 -10 24l-11 4v0q1 1 1 2q3 14 4 24v6l1 1v2v1v1v1v0v0q1 0 -4 0q-4 0 -25 1v0l29 -1v9l15 5q15 6 12 22q-6 15 -22 12l-16 -4q-11 21 -32 32l4 16
q3 16 -12 22q-16 3 -22 -12l-5 -15h-3q-24 0 -43 -10l-9 9q-13 10 -26 0q-10 -13 0 -26l8 -7q-15 -19 -17 -44l-7 3q-16 5 -23 -10q-6 -16 9 -24l9 -3q-9 -16 -37 -34l-2 5q-6 15 -22 12q-15 -6 -12 -22l2 -8q-6 -2 -12 -3q-17 -5 -31 -15l-7 8q-13 10 -26 0q-10 -13 0 -26
l9 -9q-11 -21 -10 -47l-15 -4q-15 -6 -12 -22q6 -15 22 -12l16 4q11 -21 32 -33l-4 -15v0zM576 206v0q-8 1 -19 1q-13 1 -29 1l48 -1v-1zM448 64q0 -14 -9 -23v0q-9 -9 -23 -9t-23 9t-9 23t9 23t23 9t23 -9t9 -23v0z" />
    <glyph glyph-name="bacterium" unicode="&#xe05a;" 
d="M423 417q4 22 -16 30q-22 4 -30 -16l-4 -15q-15 1 -30 -3q-18 -4 -35 -9l-6 13q-10 20 -31 13q-20 -10 -13 -31l5 -12q-33 -14 -60 -32l-7 10q-14 17 -33 7q-17 -14 -7 -33l8 -12q-27 -22 -47 -47l-14 11q-18 12 -34 -4q-12 -18 4 -34l15 -12q-3 -5 -6 -9
q-14 -24 -23 -46l-10 4q-21 6 -31 -13q-6 -21 13 -31l12 -5q-1 -2 -1 -3v0q-5 -19 -7 -31q-1 -7 -2 -11v-3v0v-2v0v-1v0q-2 0 4 0q7 -1 35 -3v0l-39 3q-1 -7 -1 -15l-15 -4q-20 -8 -16 -30q8 -20 30 -16l13 4q17 -32 49 -49l-4 -13q-4 -22 17 -30q21 -4 29 16l4 15
q37 -1 66 18l10 -11q17 -14 34 0q14 17 0 34l-11 10q14 22 17 49v1q1 2 3 9v1l13 -5q21 -7 31 12q7 21 -13 32l-11 5q14 23 49 46l2 -8q8 -20 30 -16q20 8 16 29l-4 15q10 3 22 6q20 4 35 15l11 -11q17 -14 34 0q14 17 0 34l-11 10q19 30 18 66l15 4q20 8 16 29
q-8 21 -30 17l-13 -4q-17 32 -49 49l4 13v0zM92 85v0l52 -5l-52 5v0zM112 128q1 27 24 42q24 12 48 0q23 -15 24 -42q-1 -27 -24 -42q-24 -12 -48 0q-23 15 -24 42v0zM240 264q22 -2 24 -24q-2 -22 -24 -24q-22 2 -24 24q2 22 24 24v0z" />
    <glyph glyph-name="box-tissue" unicode="&#xe05b;" 
d="M93 448h115q29 -1 43 -15q13 -14 21 -33t22 -33q13 -14 42 -15h85q12 0 19 -8q8 -7 8 -19q0 -5 -2 -10l-36 -91l-26 -64h-256l-16 64l-47 189q-1 3 -1 6q0 13 8 21t21 8v0zM79 224l16 -64h-15q-15 -1 -16 -16q1 -15 16 -16h48h256h48q15 1 16 16q-1 15 -16 16h-13l25 64
h20q20 -1 34 -14q13 -14 14 -34v-112h-512v112q1 20 14 34q14 13 34 14h31v0zM0 32h512v-48q-1 -20 -14 -34q-14 -13 -34 -14h-416q-20 1 -34 14q-13 14 -14 34v48v0z" />
    <glyph glyph-name="hand-holding-medical" unicode="&#xe05c;" horiz-adv-x="576" 
d="M224 424v-56h-56q-22 -2 -24 -24v-48q2 -22 24 -24h56v-56q2 -22 24 -24h48q22 2 24 24v56h56q22 2 24 24v48q-2 22 -24 24h-56v56q-2 22 -24 24h-48q-22 -2 -24 -24v0zM560 56q13 10 16 26v0q2 16 -8 30q-10 13 -26 16q-16 2 -30 -8l-119 -88h-121q-15 1 -16 16
q1 15 16 16h16h64q14 0 23 9t9 23t-9 23t-23 9h-64h-16h-78q-45 0 -80 -28l-45 -36h-37q-14 0 -23 -9t-9 -23v-64q0 -14 9 -23t23 -9h160h161q44 0 80 26l127 94v0zM193 64h1v0h-1v0v0z" />
    <glyph glyph-name="hand-sparkles" unicode="&#xe05d;" horiz-adv-x="640" 
d="M320 448q14 0 23 -9v0q9 -9 9 -23v-208q1 -15 16 -16q15 1 16 16v176q0 14 9 23t23 9t23 -9t9 -23v-176q1 -15 16 -16q15 1 16 16v112q0 14 9 23t23 9t23 -9t9 -23v-195q-19 -8 -25 -28l-9 -31l-31 -9q-29 -10 -31 -41q2 -31 31 -41q-47 -38 -111 -39h-19q-93 1 -160 64
l-113 107q-12 12 -12 28t11 29q12 12 28 12t29 -11l60 -58v3v2v272q0 14 9 23t23 9t23 -9t9 -23v-176q1 -15 16 -16q15 1 16 16v208q0 14 9 23t23 9v0zM313 121q-2 7 -9 7t-9 -7l-7 -25l-25 -7q-7 -2 -7 -9t7 -9l25 -7l7 -25q2 -7 9 -7t9 7l7 25l25 7q7 2 7 9t-7 9l-25 7
l-7 25v0zM104 328l48 -14q8 -2 8 -10t-8 -10l-48 -14l-14 -48q-2 -8 -10 -8t-10 8l-14 48l-48 14q-8 2 -8 10t8 10l48 14l14 48q2 8 10 8t10 -8l14 -48v0zM584 40l48 -14q8 -2 8 -10t-8 -10l-48 -14l-14 -48q-2 -8 -10 -8t-10 8l-14 48l-48 14q-8 2 -8 10t8 10l48 14l14 48
q2 8 10 8t10 -8l14 -48v0z" />
    <glyph glyph-name="hands-bubbles" unicode="&#xe05e;" horiz-adv-x="576" 
d="M416 384q14 0 23 9v0q9 9 9 23t-9 23t-23 9t-23 -9t-9 -23t9 -23t23 -9v0zM512 256q14 0 23 9v0q9 9 9 23t-9 23t-23 9t-23 -9t-9 -23t9 -23t23 -9v0zM160 -16q-1 27 -24 42q-24 12 -48 0q-23 -15 -24 -42q1 -27 24 -42q24 -12 48 0q23 15 24 42v0zM32 288v-73
q0 -39 17 -74q17 -34 47 -59v6v0v8q0 55 26 101t72 76l60 37q13 8 27 10l46 79q9 20 -8 33q-21 9 -33 -9l-78 -135q-7 -9 -17 -4q-9 6 -4 16l62 107q9 21 -9 33q-20 9 -33 -9l-68 -117v0v0l-43 -75v49q0 14 -9 23t-23 9t-23 -9t-9 -23v0zM332 359l-24 -42q21 -7 34 -27
q2 -2 3 -4l29 50q9 20 -9 32q-20 10 -33 -8v-1zM379 296l-27 -47q-1 -9 -5 -17h5h13v0h32l23 40q9 20 -9 33q-20 9 -33 -9h1zM315 273q-7 11 -20 14v0q-12 3 -24 -4l-60 -37q-39 -25 -61 -65q-22 -39 -22 -85v-8q0 -13 2 -26q27 -7 44 -28t18 -50q0 -9 -2 -18q39 -29 90 -30
h176q22 2 24 24q-2 22 -24 24h-92q-11 1 -12 12q1 11 12 12h124q22 2 24 24q-2 22 -24 24h-124q-11 1 -12 12q1 11 12 12h156q22 2 24 24q-2 22 -24 24h-156q-11 1 -12 12q1 11 12 12h124q22 2 24 24q-2 22 -24 24h-136v0v0h-93l46 29q11 7 14 20q3 12 -4 24v0z" />
    <glyph glyph-name="handshake-simple-slash" unicode="&#xe05f;" horiz-adv-x="640" 
d="M39 443q-19 12 -34 -4q-12 -19 4 -34l592 -464q19 -12 34 4q12 19 -4 34l-135 106q-2 17 -15 30l-135 123l-23 -18l-26 21l77 60q12 7 23 -3q8 -13 -3 -23l-21 -16l177 -163h42q20 1 34 14q13 14 14 34v128q-1 20 -14 34q-14 13 -34 14h-76h-4h-1l-4 2l-72 47
q-24 15 -52 15q-33 0 -60 -21l-89 -73l-26 21l82 66q-18 7 -37 7q-29 0 -53 -16l-35 -24l-126 99v0zM0 272v-128q1 -20 14 -34q14 -13 34 -14h108l92 -83q15 -14 34 -13t33 16q9 9 12 20l17 -15q15 -14 34 -13t33 16q1 1 3 2l-373 293q-18 -2 -29 -15q-12 -13 -12 -32v0z
" />
    <glyph glyph-name="handshake-slash" unicode="&#xe060;" horiz-adv-x="640" 
d="M39 443q-19 12 -34 -4q-12 -19 4 -34l592 -464q19 -12 34 4q12 19 -4 34l-135 106q-2 17 -15 30l-135 123l-23 -18l-26 21l77 60q12 7 23 -3q8 -13 -3 -23l-21 -16l139 -128v189h-1l-4 2l-72 47q-24 15 -52 15q-33 0 -60 -21l-89 -73l-26 21l82 66q-18 7 -37 7
q-29 0 -53 -16l-35 -24l-126 99v0zM96 276l-55 44h-41v-224q0 -14 9 -23t23 -9h32q14 0 23 9t9 23v180v0zM414 26l-286 225v-155h28l92 -83q15 -14 34 -13t33 16q9 9 12 20l17 -15q15 -14 34 -13t33 16q1 1 3 2v0zM48 128q15 -1 16 -16q-1 -15 -16 -16q-15 1 -16 16
q1 15 16 16v0zM544 320v-224q0 -14 9 -23t23 -9h32q14 0 23 9t9 23v224h-96v0zM576 112q1 15 16 16q15 -1 16 -16q-1 -15 -16 -16q-15 1 -16 16v0z" />
    <glyph glyph-name="head-side-cough" unicode="&#xe061;" horiz-adv-x="640" 
d="M0 224q1 62 31 113v0q29 50 80 80v0q50 30 113 31h24q73 -1 128 -46t69 -114q3 -20 15 -36l42 -53q10 -12 10 -27q0 -19 -13 -31q-12 -13 -31 -13h-20v0v-32l-109 -14q-18 -3 -19 -21q2 -20 21 -22l107 -7v-16q-1 -20 -14 -34q-14 -13 -34 -14h-80v-8q-2 -22 -24 -24h-40
v0h-160q-14 0 -23 9t-9 23v73q-1 25 -17 45q-46 61 -47 138v0zM352 224q14 0 23 9v0q9 9 9 23t-9 23t-23 9t-23 -9t-9 -23t9 -23t23 -9v0zM464 64q2 22 24 24q22 -2 24 -24q-2 -22 -24 -24q-22 2 -24 24v0zM616 88q22 -2 24 -24q-2 -22 -24 -24q-22 2 -24 24q2 22 24 24v0z
M592 -32q2 22 24 24q22 -2 24 -24q-2 -22 -24 -24q-22 2 -24 24v0zM552 136q22 -2 24 -24q-2 -22 -24 -24q-22 2 -24 24q2 22 24 24v0zM592 160q2 22 24 24q22 -2 24 -24q-2 -22 -24 -24q-22 2 -24 24v0zM552 40q22 -2 24 -24q-2 -22 -24 -24q-22 2 -24 24q2 22 24 24v0z
" />
    <glyph glyph-name="head-side-cough-slash" unicode="&#xe062;" horiz-adv-x="640" 
d="M448 122l44 -34q13 -3 18 -14l43 -34q17 -2 22 -17l39 -31h1h1q18 -1 23 -18h-4q10 -14 0 -29q-15 -16 -34 -4l-592 464q-16 15 -4 34q15 16 34 4l51 -40q57 44 134 45h24q73 -1 128 -46t69 -114q3 -20 15 -36l42 -53q10 -12 10 -27q0 -19 -13 -31q-12 -13 -31 -13h-20v0
v-6v0zM0 224q1 58 27 107l315 -248l-3 -1q-18 -3 -19 -21q2 -20 21 -22l62 -4l43 -34q-12 -31 -46 -33h-80v-8q-2 -22 -24 -24h-40v0h-160q-14 0 -23 9t-9 23v73q-1 25 -17 45q-46 61 -47 138v0zM616 88q22 -2 24 -24q-2 -22 -24 -24q-22 2 -24 24q2 22 24 24v0zM552 136
q22 -2 24 -24q-2 -22 -24 -24q-22 2 -24 24q2 22 24 24v0zM592 160q2 22 24 24q22 -2 24 -24q-2 -22 -24 -24q-22 2 -24 24v0z" />
    <glyph glyph-name="head-side-mask" unicode="&#xe063;" horiz-adv-x="576" 
d="M32 224q0 33 9 64l221 -161q-6 -14 -6 -31v-160h-128q-14 0 -23 9t-9 23v73q-1 25 -17 45q-46 61 -47 138v0zM280 153l-227 166q28 58 81 93q54 35 122 36h24q73 -1 128 -46t69 -114q3 -20 15 -36l42 -53q9 -10 10 -23h-208q-33 -1 -56 -23v0zM336 144h198v0h10l-20 -64
h-156q-15 -1 -16 -16q1 -15 16 -16h147l-10 -32h-137q-15 -1 -16 -16q1 -15 16 -16h127l-1 -3q-7 -20 -23 -32q-17 -13 -38 -13h-145v160q1 22 16 35v0q13 13 32 13v0zM384 224q14 0 23 9v0q9 9 9 23t-9 23t-23 9t-23 -9t-9 -23t9 -23t23 -9v0z" />
    <glyph glyph-name="head-side-virus" unicode="&#xe064;" 
d="M0 224q1 62 31 113v0q29 50 80 80v0q50 30 113 31h24q73 -1 128 -46t69 -114q3 -20 15 -36l42 -53q10 -12 10 -27q0 -19 -13 -31q-12 -13 -31 -13h-20v-64q-1 -27 -19 -45t-45 -19h-64v-32q0 -14 -9 -23t-23 -9h-192q-14 0 -23 9t-9 23v73q-1 25 -17 45q-46 61 -47 138v0
zM224 384q-15 -1 -16 -16q-2 -25 -23 -34t-40 8q-11 9 -23 0q-9 -11 0 -23q17 -19 8 -40t-34 -23q-15 -1 -16 -16q1 -15 16 -16q25 -2 34 -23t-8 -40q-9 -12 0 -23q12 -9 23 0q19 17 40 8t23 -34q1 -15 16 -16q15 1 16 16q2 25 23 34t40 -8q12 -9 23 0q9 12 0 23
q-17 19 -8 40t34 23q15 1 16 16q-1 15 -16 16q-25 2 -34 23t8 40q9 11 0 23q-12 9 -23 0q-19 -17 -40 -8t-23 34q-1 15 -16 16v0zM200 288q22 -2 24 -24q-2 -22 -24 -24q-22 2 -24 24q2 22 24 24v0zM240 208q1 15 16 16q15 -1 16 -16q-1 -15 -16 -16q-15 1 -16 16v0z" />
    <glyph glyph-name="house-chimney-user" unicode="&#xe065;" horiz-adv-x="576" 
d="M544 160q13 1 22 10v0q9 9 10 22q1 14 -11 24l-53 47v121q0 14 -9 23t-23 9h-32q-14 0 -23 -9t-9 -23v-37l-106 94q-10 7 -21 7q-11 1 -22 -8l-257 -224q-10 -10 -10 -24q0 -13 9 -22t23 -10h32v-160q1 -27 19 -45t45 -19h321q27 1 45 19t19 45l-1 160h32v0zM288 288
q36 -1 55 -32q18 -32 0 -64q-19 -31 -55 -32q-36 1 -55 32q-18 32 0 64q19 31 55 32v0zM176 48q1 34 23 57v0q23 22 57 23h64q34 -1 57 -23q22 -23 23 -57q-1 -15 -16 -16h-192q-15 1 -16 16v0z" />
    <glyph glyph-name="house-laptop" unicode="&#xe066;" horiz-adv-x="640" 
d="M218 439q10 9 22 9v0q12 0 22 -9l208 -192q10 -9 10 -23h-144q-30 -1 -48 -22v38q-1 15 -16 16h-64q-15 -1 -16 -16v-64q1 -15 16 -16h64v-128h-160q-20 1 -34 14q-13 14 -14 34v112h-32q-21 1 -30 20q-7 20 8 35l208 192v0zM352 144v-144h192v144h-192v0zM304 160
q0 14 9 23v0q9 9 23 9h224q14 0 23 -9t9 -23v-160h32q15 -1 16 -16q-1 -20 -14 -34q-14 -13 -34 -14h-48h-192h-48q-20 1 -34 14q-13 14 -14 34q1 15 16 16h32v160v0z" />
    <glyph glyph-name="lungs-virus" unicode="&#xe067;" horiz-adv-x="640" 
d="M320 448q14 0 23 -9v0q9 -9 9 -23v-124q-13 12 -32 12t-32 -12v124q0 14 9 23t23 9v0zM445 252q-13 13 -30 14v0q-16 2 -31 -7v24q1 29 20 49q20 19 49 20q35 0 56 -29q12 -17 31 -47q20 -31 40 -70q21 -38 37 -82q17 -44 23 -88v-4v-7q-1 -38 -26 -63t-63 -26
q-11 0 -22 3l-72 18q-32 8 -52 33q22 -3 39 14l-22 22l22 -22q14 14 14 34q0 19 -14 33q-1 2 -1 3v3q1 2 2 2v0q1 1 3 1q20 1 34 14q13 14 14 34q-1 20 -14 34q-14 13 -34 14q-2 0 -3 1q-1 0 -2 2v3t1 2q14 15 14 34q0 20 -14 34h1zM422 26q-12 -9 -23 0q-19 17 -40 8
t-23 -34q-1 -15 -16 -16q-15 1 -16 16q-2 25 -23 34t-40 -8q-11 -9 -23 0q-9 12 0 23q17 19 8 40t-34 23q-15 1 -16 16q1 15 16 16q25 2 34 23t-8 40q-9 11 0 23q12 9 23 0q19 -17 40 -8t23 34q1 15 16 16q15 -1 16 -16q2 -25 23 -34t40 8q12 9 23 0q9 -12 0 -23
q-17 -19 -8 -40t34 -23q15 -1 16 -16q-1 -15 -16 -16q-25 -2 -34 -23t8 -40q9 -12 0 -23v0zM183 -43l-72 -18q-11 -3 -22 -3q-38 1 -63 26t-26 63v7v4q6 44 23 88q16 44 37 82q20 39 40 70q19 30 31 47q21 28 56 29q29 -1 49 -20q19 -20 20 -49v-24q-14 9 -31 7
q-17 -1 -29 -14q-15 -14 -15 -33q0 -20 15 -34q1 -2 1 -3v-3l-2 -2v0q-1 -1 -3 -1q-20 0 -34 -14t-14 -34t14 -34q14 -13 34 -14q2 0 3 -1q1 0 2 -2v-3t-1 -2q-15 -15 -15 -34t15 -34q17 -16 39 -14q-20 -25 -52 -33v0zM296 128q22 2 24 24q-2 22 -24 24q-22 -2 -24 -24
q2 -22 24 -24v0zM368 96q-1 15 -16 16q-15 -1 -16 -16q1 -15 16 -16q15 1 16 16v0z" />
    <glyph glyph-name="people-arrows" unicode="&#xe068;" horiz-adv-x="640" 
d="M64 384q1 36 32 55q32 18 64 0q31 -19 32 -55q-1 -36 -32 -55q-32 -18 -64 0q-31 19 -32 55v0zM26 215q3 31 25 52v0q23 20 55 21h44q43 -2 66 -34l-8 -6l-64 -64q-16 -18 -16 -40t16 -40l48 -47v-73q-1 -20 -14 -34q-14 -13 -34 -14h-32q-20 1 -34 14q-13 14 -14 34v116
q-20 7 -32 25t-10 40l4 50v0zM448 384q1 36 32 55q32 18 64 0q31 -19 32 -55q-1 -36 -32 -55q-32 -18 -64 0q-31 19 -32 55v0zM432 248l-8 6q24 32 66 34h44q32 -1 55 -21q22 -21 25 -52l4 -50q2 -22 -10 -40t-32 -25v-116q-1 -20 -14 -34q-14 -13 -34 -14h-32q-20 1 -34 14
q-13 14 -14 34v73l48 47q16 18 16 40t-16 40l-64 64v0zM272 208v-32h96v32q1 16 15 22t26 -5l64 -64q14 -17 0 -34l-64 -64q-12 -10 -26 -5q-14 6 -15 22v32h-96v-32q-1 -16 -15 -22t-26 5l-64 64q-14 17 0 34l64 64q12 10 26 5q14 -7 15 -22v0z" />
    <glyph glyph-name="plane-slash" unicode="&#xe069;" horiz-adv-x="640" 
d="M514 256q29 -1 60 -19v0q31 -18 34 -45q-3 -28 -34 -46q-31 -17 -60 -18h-73l190 -149q16 -15 4 -34q-15 -16 -34 -4l-592 464q-16 15 -4 34q15 16 34 4l199 -156l-40 141q-3 17 15 20h56q19 -1 28 -16l101 -176h116v0zM42 319l321 -253l-66 -114q-9 -15 -28 -16h-56
q-18 3 -15 20l49 172h-103l-43 -58q-5 -6 -13 -6h-42q-13 1 -14 14q0 2 1 4l31 110l-31 110q-1 2 -1 4q1 10 10 13v0z" />
    <glyph glyph-name="pump-medical" unicode="&#xe06a;" horiz-adv-x="448" 
d="M128 416v-96h128v32h60q7 0 11 -5l34 -34q10 -9 23 -9t23 9q9 10 9 23t-9 23l-34 34q-24 23 -57 23h-60q0 14 -9 23t-23 9h-64q-14 0 -23 -9t-9 -23v0zM117 288q-25 -1 -43 -17v0q-18 -16 -20 -42l-19 -224q-2 -29 17 -48q18 -20 47 -21h186q29 1 47 21q19 19 17 48
l-19 224q-2 26 -20 42t-43 17h-150v0zM216 168v-32h32q22 -2 24 -24q-2 -22 -24 -24h-32v-32q-2 -22 -24 -24q-22 2 -24 24v32h-32q-22 2 -24 24q2 22 24 24h32v32q2 22 24 24q22 -2 24 -24v0z" />
    <glyph glyph-name="pump-soap" unicode="&#xe06b;" horiz-adv-x="448" 
d="M128 416v-96h128v32h60q7 0 11 -5l34 -34q10 -9 23 -9t23 9q9 10 9 23t-9 23l-34 34q-24 23 -57 23h-60q0 14 -9 23t-23 9h-64q-14 0 -23 -9t-9 -23v0zM117 288q-25 -1 -43 -17v0q-18 -16 -20 -42l-19 -224q-2 -29 17 -48q18 -20 47 -21h186q29 1 47 21q19 19 17 48
l-19 224q-2 26 -20 42t-43 17h-150v0zM256 88q-1 -27 -19 -41v0q-18 -15 -45 -15t-45 15q-18 14 -19 41q2 26 20 55q19 29 31 43q5 6 13 6t13 -6q12 -14 31 -43q18 -29 20 -55v0z" />
    </font>
</defs>
</svg>
